Медики Чикаго / Chicago Med / Сезон: 4 / Серии: 1-10 из 20 (Майкл Ваксман, Фред Бернер, Чарльз С. Кэрролл) [2018, драма, WEB-DLRip] (VO : Денис Шадинский)

Ответить на тему
Статистика раздачи
Размер:  5,77 GB   |    Зарегистрирован:  7 дней   |    Скачан:  0 раз

Полного источника не было: 3 дня

 
 
 
 
Автор Сообщение

.:Mercury:. ®

VIP пользователь

Пол: Мужской

Стаж: 1 год 1 месяц

Сообщений: 2826

Карма: 31947 [+]

Наличие запрета:

[Профиль] [ЛС]

Создавать темы 15-Окт-2018 11:29

[Цитировать]

Медики Чикаго / Chicago Med- -Год выпуска: 2018
Страна: США
Жанр: драма
Продолжительность: 1х 00:41:00
Перевод: Любительский одноголосый закадровый
Доп. инфо о переводе: Денис Шадинский--Режиссёр: Майкл Ваксман , Фред Бернер , Чарльз С. Кэрролл--В ролях: Ник Гелфусс , Йайа ДаКоста , Торри ДеВито , Колин Доннелл , Брайан Ти , Марлайн Эффлэк , С. Ипейта Меркерсон , Оливер Платт , Рэйчел ДиПилло , Лорена Диас--Описание: Сериал рассказывает о команде врачей, работающих в чикагской больнице. Каждый день им приходится работать в полном хаосе и разбираться с уникальными случаями.--Качество видео: WEB-DLRip
Формат: AVI-Видео: Xvid 720x400 23.976fps 1799kbps
Аудио: Dolby AC3 48000Hz stereo 192kbps 2ch
General
Complete name : F:\Ртуть\Сериалы\chicago_med_s04e01.avi
Format : AVI
Format/Info : Audio Video Interleave
File size : 599 MiB
Duration : 41 min 52 s
Overall bit rate : 2 000 kb/s
Video
ID : 0
Format : MPEG-4 Visual
Format profile : Advanced Simple@L5
Format settings : BVOP1 / Custom Matrix
Format settings, BVOP : 1
Format settings, QPel : No
Format settings, GMC : No warppoints
Format settings, Matrix : Custom
Codec ID : XVID
Codec ID/Hint : XviD
Duration : 41 min 52 s
Bit rate : 1 800 kb/s
Width : 720 pixels
Height : 400 pixels
Display aspect ratio : 16:9
Frame rate : 23.976 (24000/1001) FPS
Color space : YUV
Chroma subsampling : 4:2:0
Bit depth : 8 bits
Scan type : Progressive
Compression mode : Lossy
Bits/(Pixel*Frame) : 0.261
Stream size : 539 MiB (90%)
Writing library : XviD 73
Audio
ID : 1
Format : AC-3
Format/Info : Audio Coding 3
Commercial name : Dolby Digital
Codec ID : 2000
Duration : 41 min 52 s
Bit rate mode : Constant
Bit rate : 192 kb/s
Channel(s) : 2 channels
Channel layout : L R
Sampling rate : 48.0 kHz
Frame rate : 31.250 FPS (1536 SPF)
Bit depth : 16 bits
Compression mode : Lossy
Stream size : 57.5 MiB (10%)
Alignment : Aligned on interleaves
Interleave, duration : 64 ms (1.53 video frames)
Interleave, preload duration : 192 ms
Service kind : Complete Main
-- -

Релиз подготовлен RG Serials

Если ваш рейтинг упадет ниже 0,3, вы не сможете скачивать торренты! Подробнее о рейтинге.

[toptorrent.pw].t4815.torrent
Торрент: Зарегистрирован [ 2019-03-14 13:44 ] · 341C6AA775CC9F1313505AB86E41121452309BC7

Скачать .torrent

Скачать

15 KB

Статус: T временная
Скачан: 0 раз
Размер: 5,77 GB
Оценка: 
(Голосов: 1)
Поблагодарили: 1  Спасибо   (список)
terms.php


Последний раз редактировалось: .:Mercury:. (2019-03-14 18:47), всего редактировалось 4 раз(а)

.:Mercury:. ®

VIP пользователь

Пол: Мужской

Стаж: 1 год 1 месяц

Сообщений: 2826

Карма: 31947 [+]

Наличие запрета:

[Профиль] [ЛС]

Создавать темы 24-Дек-2018 09:50 (спустя 2 месяца 8 дней)

[Цитировать]

Добавлена 2-я, 3-я, 4-я, 5-я и 6-я серия

.:Mercury:. ®

VIP пользователь

Пол: Мужской

Стаж: 1 год 1 месяц

Сообщений: 2826

Карма: 31947 [+]

Наличие запрета:

[Профиль] [ЛС]

Создавать темы 17-Фев-2019 06:59 (спустя 1 месяц 23 дня)

[Цитировать]

+7-я и 8-я серия

.:Mercury:. ®

VIP пользователь

Пол: Мужской

Стаж: 1 год 1 месяц

Сообщений: 2826

Карма: 31947 [+]

Наличие запрета:

[Профиль] [ЛС]

Создавать темы 14-Мар-2019 13:45 (спустя 25 дней)

[Цитировать]

+9-я и 10-я серия
Показать сообщения:    
Ответить на тему

Текущее время: 21-Мар 15:33

Часовой пояс: UTC + 5



Вы не можете начинать темы
Вы не можете отвечать на сообщения
Вы не можете редактировать свои сообщения
Вы не можете удалять свои сообщения
Вы не можете голосовать в опросах
Вы не можете прикреплять файлы к сообщениям
Вы можете скачивать файлы