Реальные упыри / Чем мы заняты в тени / What We Do in the Shadows / Сезон 1 / Серии 1-10 из 10 (Джемейн Клемент, Джейсон Уолинер, Тайка Вайтити) [2019 г., Комедия, Ужасы, WEB-DL 1080p] MVO (LostFilm) + Original Eng

Reply to topic
DL-List and Torrent activity
Size:  12.29 GB   |    Registered:  1 month 17 days   |    Completed:  0 times
Seeders:  2  [  0 KB/s  ]   Show peers in full details
 
 
 
 
Author Message

.:Mercury:. ®

Gender: Male

Longevity: 1 year 5 months

Posts: 3405

Карма: 31947 [+]

Наличие запрета:

[Profile] [PM]

Post 31-Mar-2019 12:35

[Quote]

Реальные упыри / Чем мы заняты в тени / What We Do in the Shadows- -Год выпуска: 2019
Страна: США
Жанр: Комедия, Ужасы
Продолжительность: ~00:28:00 серия
Перевод: Профессиональный (многоголосый, закадровый) LostFilm--Режиссер: Джемейн Клемент, Джейсон Уолинер, Тайка Вайтити--В ролях: Кайван Новак (Nandor), Харви Гильен (Guillermo), Натасия Деметриу (Nadja), Мэтт Берри (Laszlo), Марк Прокш (Colin Robinson), Вероника Словиковска (Shanice), Крис Перфетти (Kyle), KhaRå Martin (Cheyenne), Александра Хенриксон (Vasillika), Шиван Фэллон (Karen), Бини Фелдштейн, Даг Джонс--Описание: В одном из причудливых домов Статен-Айленда проживает странная компания со странными именами и образом жизни. Нандор (Кайван Новак) когда-то был свирепым воином Османской империи, а потом стал вампиром, но лидерских качеств не растерял, поэтому провозгласил себя главой импровизированной коммуны и периодически пытается придумывать какие-то правила и раздавать указы, хотя никто его всерьез не воспринимает. Его соседями стали жулик и пижон Ласло (Мэтт Берри) и его клыкастая подружка Надья (Натасия Деметриу) — парочка, которая любит вспоминать свои любовные похождения из средневекового прошлого. Они перебрались из Европы в Нью-Йорк пару столетий назад потому, что, как они сами утверждают, там их невзлюбили за цвет кожи. Ну и за то, что едят людей. Справляться с реалиями современной жизни, например, оплачивать товары картой или оставлять подпись отпечатком пальца, им помогает бестолковый фамильяр Гильермо (Харви Гильен), мечтающий однажды превратиться в кровопийцу. Кроме того, есть в компании и свой изгой — энергетический вампир Колин (Марк Прокш), который высасывает из людей силы долгими скучными разговорами. Не нравится он и олдовым кровососам, так что они стараются его избегать, хоть и живут в одном доме. И все у этого диковатого сообщества идет более-менее спокойно, пока они не получают пафосное письмо от барона Афанаса (Даг Джонс) — зловещего темного лорда, который вознамерился навестить своих подопечных, чтобы напомнить им о главной цели существования всех вампиров — порабощение людишек и тотальное доминирование в мире. Но разве можно заставить выполнять столь сложную миссию того, кто хочет по большей части развлекаться, поедая девственников-ролевиков и подглядывая за симпатичными онанистами через окно? С другой стороны, ослушаться темного лорда себе дороже — последствия могут быть непредсказуемыми для всех...--Доп. информация: Реальные упыри» — это комедийный хоррор канала FX, являющийся телеадаптацией одноименного фильма Тайки Вайтити 2014 года, который позволил по-новому взглянуть на уже приевшийся к тому времени вампирский жанр. К созданию шоу приложил руку сам Тайка, ставший теперь весьма востребованным фильммейкером, а также его коллега Джемейн Клемент, вместе с которым они сняли положенную в основу их фильма короткометражку. Оба выступили продюсерами и режиссерами новых «Упырей», чье действие перенеслось из Новой Зеландии в Нью-Йорк, но не растеряло фирменного черного юмора и визуальных находок. Снят сериал в том же стиле мокьюментари, что и фильм, от чего все это напоминает культовый «Офис», только с вампирами вместо пресловутого планктона и более безумными шутками. Команда древних кровопийц, которые пытаются влиться в современное общество, была принята критиками на ура: перед вами проект, который смешнее, умнее, изобретательней и свежей, чем все снятые прежде вампирские комедии вместе взятые.--Качество: WEB-DL 1080p
Формат: MKV
Видео кодек: H.264
Аудио кодек: AC3
Видео: AVC, 1920x1080 (16:9), 23.976 (24000/1001) fps, 6 800 kb/s
Аудио#1: AC-3, 48.0 kHz, 31.250 fps (1536 spf), 16 bits, 384 kb/s, 2ch | Rus
Аудио#2: AC-3, 48.0 kHz, 31.250 fps (1536 spf), 16 bits, 384 kb/s, 2ch | Eng
General
Unique ID : 220854281672880067162397277376586796356 (0xA626FCC8FF9BD8FEBC0C1E1B2DE94D44)
Complete name : /media/mercury/D/What.We.Do.In.the.Shadows.S01E01.1080p.rus.LostFilm.TV.mkv
Format : Matroska
Format version : Version 4 / Version 2
File size : 1.54 GiB
Duration : 29 min 8 s
Overall bit rate : 7 550 kb/s
Encoded date : UTC 2019-03-30 19:34:17
Writing application : mkvmerge v7.7.0 ('Six Voices') 64bit built on Feb 28 2015 23:39:33
Writing library : libebml v1.3.1 + libmatroska v1.4.2
Video
ID : 1
Format : AVC
Format/Info : Advanced Video Codec
Format profile : High@L4.1
Format settings : CABAC / 4 Ref Frames
Format settings, CABAC : Yes
Format settings, ReFrames : 4 frames
Codec ID : V_MPEG4/ISO/AVC
Duration : 29 min 8 s
Bit rate : 6 800 kb/s
Width : 1 920 pixels
Height : 1 080 pixels
Display aspect ratio : 16:9
Frame rate mode : Constant
Frame rate : 23.976 (24000/1001) FPS
Original frame rate : 23.976 (23976/1000) FPS
Color space : YUV
Chroma subsampling : 4:2:0
Bit depth : 8 bits
Scan type : Progressive
Bits/(Pixel*Frame) : 0.137
Stream size : 1.38 GiB (90%)
Writing library : x264 core 112 r1834 a51816a
Encoding settings : cabac=1 / ref=4 / deblock=1:-3:-2 / analyse=0x3:0x113 / me=hex / subme=7 / psy=1 / psy_rd=1.00:0.00 / mixed_ref=1 / me_range=16 / chroma_me=1 / trellis=1 / 8x8dct=1 / cqm=0 / deadzone=21,11 / fast_pskip=1 / chroma_qp_offset=-2 / threads=6 / sliced_threads=0 / nr=0 / decimate=1 / interlaced=0 / constrained_intra=0 / bframes=5 / b_pyramid=2 / b_adapt=1 / b_bias=0 / direct=1 / weightb=1 / open_gop=0 / weightp=2 / keyint=250 / keyint_min=25 / scenecut=40 / intra_refresh=0 / rc_lookahead=40 / rc=2pass / mbtree=1 / bitrate=6800 / ratetol=1.0 / qcomp=0.60 / qpmin=0 / qpmax=51 / qpstep=4 / cplxblur=20.0 / qblur=0.5 / vbv_maxrate=10000 / vbv_bufsize=256000 / ip_ratio=1.40 / aq=1:1.00 / nal_hrd=none
Default : Yes
Forced : No
Audio #1
ID : 2
Format : AC-3
Format/Info : Audio Coding 3
Codec ID : A_AC3
Duration : 29 min 8 s
Bit rate mode : Constant
Bit rate : 384 kb/s
Channel(s) : 2 channels
Channel positions : Front: L R
Sampling rate : 48.0 kHz
Frame rate : 31.250 FPS (1536 SPF)
Bit depth : 16 bits
Compression mode : Lossy
Stream size : 80.0 MiB (5%)
Service kind : Complete Main
Default : Yes
Forced : No
Audio #2
ID : 3
Format : AC-3
Format/Info : Audio Coding 3
Codec ID : A_AC3
Duration : 29 min 8 s
Bit rate mode : Constant
Bit rate : 384 kb/s
Channel(s) : 2 channels
Channel positions : Front: L R
Sampling rate : 48.0 kHz
Frame rate : 31.250 FPS (1536 SPF)
Bit depth : 16 bits
Compression mode : Lossy
Stream size : 80.0 MiB (5%)
Service kind : Complete Main
Default : No
Forced : No

Release was prepared by RG Serials

If your ratio falls below 0.3, you will not be able to download Torrents! More about the rating.

[toptorrent.pw].t5736.torrent
Torrent: Registered [ 2019-06-02 10:51 ] · 7BE643F73E4A091C2A2D876AE59DA06D10DAB078

Download .torrent

Download

63 KB

Status: checked
Completed: 0 times
Size: 12.29 GB
Rate: 
(Vote: 1)
Has thanked: 1  Thanks   (List)
terms.php


Last edited by .:Mercury:. on 2019-06-02 10:51; edited 8 times in total

.:Mercury:. ®

Gender: Male

Longevity: 1 year 5 months

Posts: 3405

Карма: 31947 [+]

Наличие запрета:

[Profile] [PM]

Post 07-Apr-2019 13:41 (after 7 days)

[Quote]

+2-я серия

.:Mercury:. ®

Gender: Male

Longevity: 1 year 5 months

Posts: 3405

Карма: 31947 [+]

Наличие запрета:

[Profile] [PM]

Post 14-Apr-2019 12:11 (after 6 days)

[Quote]

+3-я серия

.:Mercury:. ®

Gender: Male

Longevity: 1 year 5 months

Posts: 3405

Карма: 31947 [+]

Наличие запрета:

[Profile] [PM]

Post 21-Apr-2019 10:28 (after 6 days)

[Quote]

+4-я серия

.:Mercury:. ®

Gender: Male

Longevity: 1 year 5 months

Posts: 3405

Карма: 31947 [+]

Наличие запрета:

[Profile] [PM]

Post 28-Apr-2019 09:57 (after 6 days)

[Quote]

+5-я серия

.:Mercury:. ®

Gender: Male

Longevity: 1 year 5 months

Posts: 3405

Карма: 31947 [+]

Наличие запрета:

[Profile] [PM]

Post 05-May-2019 12:22 (after 7 days)

[Quote]

+6-я серия

.:Mercury:. ®

Gender: Male

Longevity: 1 year 5 months

Posts: 3405

Карма: 31947 [+]

Наличие запрета:

[Profile] [PM]

Post 11-May-2019 22:17 (after 6 days)

[Quote]

+7-я серия

.:Mercury:. ®

Gender: Male

Longevity: 1 year 5 months

Posts: 3405

Карма: 31947 [+]

Наличие запрета:

[Profile] [PM]

Post 19-May-2019 11:30 (after 7 days)

[Quote]

+8-я серия

.:Mercury:. ®

Gender: Male

Longevity: 1 year 5 months

Posts: 3405

Карма: 31947 [+]

Наличие запрета:

[Profile] [PM]

Post 26-May-2019 11:43 (after 7 days)

[Quote]

+9-я серия

.:Mercury:. ®

Gender: Male

Longevity: 1 year 5 months

Posts: 3405

Карма: 31947 [+]

Наличие запрета:

[Profile] [PM]

Post 02-Jun-2019 10:55 (after 6 days)

[Quote]

+Заключительная серия
Display posts:    
Reply to topic

Current time is: 20-Jul 05:57

All times are UTC + 5



You cannot post new topics in this forum
You cannot reply to topics in this forum
You cannot edit your posts in this forum
You cannot delete your posts in this forum
You cannot vote in polls in this forum
You cannot attach files in this forum
You can download files in this forum