Хэппи! / Happy! / Сезон 2 / Серии 1-10 из 10 (Брайан Тейлор, Уэйн Йип, Дэвид Петрарка) [2019 г., Боевик, Драма, Комедия, Комиксы, Криминал, Фэнтези, WEB-DL 1080p] MVO (LostFilm) + Original Eng

Reply to topic
DL-List and Torrent activity
Size:  23.59 GB   |    Registered:  1 month 18 days   |    Completed:  0 times

Seeder not seen: 9 days

 
 
 
 
Author Message

.:Mercury:. ®

Gender: Male

Longevity: 1 year 5 months

Posts: 3405

Карма: 31947 [+]

Наличие запрета:

[Profile] [PM]

Post 30-Mar-2019 07:50

[Quote]

Хэппи! / Happy!- -Год выпуска: 2019
Страна: США
Жанр: Боевик, Драма, Комедия, Комиксы, Криминал, Фэнтези
Продолжительность: ~00:44:00
Перевод: Профессиональный (многоголосый, закадровый) LostFilm--Режиссер: Брайан Тейлор, Уэйн Йип, Дэвид Петрарка--В ролях: Кристофер Мелони, Ren Colley, Александр Джеймисон, Katie Beth Hall, Джозеф Д. Рейтман, Catherine LeFrere, Бенжамин Снайдер, Майкл Мейзе, Аллен Энлоу, Брайс Лоренцо, Лили Мирожник, Скотт Барик--Описание: Ник Сакс (Кристофер Мелони) в прошлом считался одним из лучших детективов полиции, но с работы его с позором выгнали, и теперь жизнь превратилась для него в унитаз с дерьмом, которое никогда не смывается. По крайней мере, сам Ник считает именно так. Нет, у него, конечно, есть работа, и кто-то бы даже позавидовал Саксу: он стал наемником и убирает одних уродов по заказу других, параллельно заливая тоску алкоголем. Вот только из приличного копа Ник деградировал в небритого пьянчугу с пистолетом, который, стоя в задрипанном туалете, представляет сцену собственного самоубийства. Чувак с фонтаном крови из головы, танцующий под музыку диско? Под действием таблеток и не такое увидишь. В общем, мир убийств и беспорядочных связей принял Сакса с распростертыми объятиями, но очередное дело заканчивается для него печально: он едва не отбрасывает коньки. Очнувшись, Ник встречает своего нового кореша — единорога, которого видит только он. На самом деле Хэппи — воображаемый друг милейшей девочки Хейли (Брайс Лоренцо). Она попала в руки опасного похитителя, обожающего Санту, а Хэппи только и требовалось, что найти человека, способного помочь его маленькой хозяйке. Для столь ответственного задания он выбрал наименее подходящего исполнителя. У Сакса и без того проблем хватает: ему на хвост села мафия, охотящаяся за каким-то паролем, жуткий садист мечтает покромсать его детородный орган, а тут еще и голубой единорог на позитиве скачет рядом. Найдут ли общий язык волшебный конь и опустившийся на дно киллер? Возможно, полному грязи и насилия городу как раз и нужен такой необычный тандем, сеющий вокруг себя хаос и посылающий в мир лучи добра.--Доп. информация: С кем только не приходилось работать полицейским из телевизионных шоу: компьютерные гении, ясновидцы, психологи, суперврачи и даже сам дьявол. И сколько бы новых процедуралов ни появлялось, они всегда находят поклонников. Канал Syfy не преминул этим воспользоваться и решил снять сериал о копе, у которого в напарниках оказался воображаемый друг — полный оптимизма единорог. В основу «Хэппи» положена популярная графическая новелла легендарного автора Гранта Моррисона. Оригинал так и манит читателей обилием крови, мрачной атмосферой, черным юмором и неунывающей парочкой центральных персонажей. И хотя на печатных страницах похождения веселой лошадки и киллера-алкоголика длились недолго, создатели шоу пообещали дополнить имеющийся у них материал. Перенести же весь этот хаос на экраны согласился Брайан Тейлор, знающий толк в безумии. Ранее вместе со своим коллегой Марком Невелдайном он подарил киноманам два драйвовых бесшабашных «Адреналина». Правда, главная роль в новом проекте отдана не Джейсону Стэйтему, а Кристоферу Мелони. На съемках «Хэппи» актер, долгие годы зарабатывавший репутацию хорошего парня, оторвался на всю катушку. По словам критиков, наблюдать за героем, прожигающим жизнь в захудалых барах, и его воображаемым товарищем — одно удовольствие. Новый сериал Syfy по праву можно назвать самой безумной, дикой и дерзкой новинкой нынешнего года, которая порадует зрителей отменным юмором с нотками пошлости и сарказма.--Качество: WEB-DL 1080p
Формат: MKV
Видео кодек: H.264
Аудио кодек: AC3
Видео: AVC, 1920x1080 (16:9), 23.976 (24000/1001) fps, 6 800 kb/s
Аудио#1: AC-3, 48.0 kHz, 31.250 fps (1536 spf), 16 bits, 384 kb/s, 2ch | Rus
Аудио#2: AC-3, 48.0 kHz, 31.250 fps (1536 spf), 16 bits, 384 kb/s, 2ch | Eng
General
Unique ID : 231365364917243111599844684685727406284 (0xAE0F59334957EFAB954C40E71D5A98CC)
Complete name : /media/mercury/D/Happy.S02E01.1080p.rus.LostFilm.TV.mkv
Format : Matroska
Format version : Version 4 / Version 2
File size : 2.57 GiB
Duration : 48 min 36 s
Overall bit rate : 7 565 kb/s
Encoded date : UTC 2019-03-29 18:52:04
Writing application : mkvmerge v7.7.0 ('Six Voices') 64bit built on Feb 28 2015 23:39:33
Writing library : libebml v1.3.1 + libmatroska v1.4.2
Video
ID : 1
Format : AVC
Format/Info : Advanced Video Codec
Format profile : High@L4.1
Format settings : CABAC / 4 Ref Frames
Format settings, CABAC : Yes
Format settings, ReFrames : 4 frames
Codec ID : V_MPEG4/ISO/AVC
Duration : 48 min 36 s
Bit rate : 6 800 kb/s
Width : 1 920 pixels
Height : 1 080 pixels
Display aspect ratio : 16:9
Frame rate mode : Constant
Frame rate : 23.976 (24000/1001) FPS
Original frame rate : 23.976 (23976/1000) FPS
Color space : YUV
Chroma subsampling : 4:2:0
Bit depth : 8 bits
Scan type : Progressive
Bits/(Pixel*Frame) : 0.137
Stream size : 2.31 GiB (90%)
Writing library : x264 core 112 r1834 a51816a
Encoding settings : cabac=1 / ref=4 / deblock=1:-3:-2 / analyse=0x3:0x113 / me=hex / subme=7 / psy=1 / psy_rd=1.00:0.00 / mixed_ref=1 / me_range=16 / chroma_me=1 / trellis=1 / 8x8dct=1 / cqm=0 / deadzone=21,11 / fast_pskip=1 / chroma_qp_offset=-2 / threads=6 / sliced_threads=0 / nr=0 / decimate=1 / interlaced=0 / constrained_intra=0 / bframes=5 / b_pyramid=2 / b_adapt=1 / b_bias=0 / direct=1 / weightb=1 / open_gop=0 / weightp=2 / keyint=250 / keyint_min=25 / scenecut=40 / intra_refresh=0 / rc_lookahead=40 / rc=2pass / mbtree=1 / bitrate=6800 / ratetol=1.0 / qcomp=0.60 / qpmin=0 / qpmax=51 / qpstep=4 / cplxblur=20.0 / qblur=0.5 / vbv_maxrate=10000 / vbv_bufsize=256000 / ip_ratio=1.40 / aq=1:1.00 / nal_hrd=none
Default : Yes
Forced : No
Audio #1
ID : 2
Format : AC-3
Format/Info : Audio Coding 3
Codec ID : A_AC3
Duration : 48 min 35 s
Bit rate mode : Constant
Bit rate : 384 kb/s
Channel(s) : 2 channels
Channel positions : Front: L R
Sampling rate : 48.0 kHz
Frame rate : 31.250 FPS (1536 SPF)
Bit depth : 16 bits
Compression mode : Lossy
Stream size : 133 MiB (5%)
Service kind : Complete Main
Default : Yes
Forced : No
Audio #2
ID : 3
Format : AC-3
Format/Info : Audio Coding 3
Codec ID : A_AC3
Duration : 48 min 36 s
Bit rate mode : Constant
Bit rate : 384 kb/s
Channel(s) : 2 channels
Channel positions : Front: L R
Sampling rate : 48.0 kHz
Frame rate : 31.250 FPS (1536 SPF)
Bit depth : 16 bits
Compression mode : Lossy
Stream size : 134 MiB (5%)
Service kind : Complete Main
Default : No
Forced : No

Release was prepared by RG Serials

If your ratio falls below 0.3, you will not be able to download Torrents! More about the rating.

[toptorrent.pw].t5733.torrent
Torrent: Registered [ 2019-06-01 07:43 ] · B543362DEAE60D99A39D1679C0D7C6F95F75B240

Download .torrent

Download

119 KB

Status: checked
Completed: 0 times
Size: 23.59 GB
Rate: 
(Vote: 1)
Has thanked: 1  Thanks   (List)
terms.php


Last edited by .:Mercury:. on 2019-06-01 07:43; edited 8 times in total

.:Mercury:. ®

Gender: Male

Longevity: 1 year 5 months

Posts: 3405

Карма: 31947 [+]

Наличие запрета:

[Profile] [PM]

Post 06-Apr-2019 18:22 (after 7 days)

[Quote]

2-я серия

.:Mercury:. ®

Gender: Male

Longevity: 1 year 5 months

Posts: 3405

Карма: 31947 [+]

Наличие запрета:

[Profile] [PM]

Post 14-Apr-2019 18:18 (after 7 days)

[Quote]

+3-я серия

.:Mercury:. ®

Gender: Male

Longevity: 1 year 5 months

Posts: 3405

Карма: 31947 [+]

Наличие запрета:

[Profile] [PM]

Post 20-Apr-2019 10:21 (after 5 days)

[Quote]

+4-я серия

.:Mercury:. ®

Gender: Male

Longevity: 1 year 5 months

Posts: 3405

Карма: 31947 [+]

Наличие запрета:

[Profile] [PM]

Post 27-Apr-2019 13:14 (after 7 days)

[Quote]

+5-я серия

.:Mercury:. ®

Gender: Male

Longevity: 1 year 5 months

Posts: 3405

Карма: 31947 [+]

Наличие запрета:

[Profile] [PM]

Post 04-May-2019 03:35 (after 6 days)

[Quote]

+6-я серия

.:Mercury:. ®

Gender: Male

Longevity: 1 year 5 months

Posts: 3405

Карма: 31947 [+]

Наличие запрета:

[Profile] [PM]

Post 10-May-2019 22:20 (after 6 days)

[Quote]

+7-я серия

.:Mercury:. ®

Gender: Male

Longevity: 1 year 5 months

Posts: 3405

Карма: 31947 [+]

Наличие запрета:

[Profile] [PM]

Post 18-May-2019 00:27 (after 7 days)

[Quote]

+8-я серия

.:Mercury:. ®

Gender: Male

Longevity: 1 year 5 months

Posts: 3405

Карма: 31947 [+]

Наличие запрета:

[Profile] [PM]

Post 25-May-2019 11:09 (after 7 days)

[Quote]

+9-я серия

.:Mercury:. ®

Gender: Male

Longevity: 1 year 5 months

Posts: 3405

Карма: 31947 [+]

Наличие запрета:

[Profile] [PM]

Post 01-Jun-2019 07:47 (after 6 days)

[Quote]

+Заключительная серия
Display posts:    
Reply to topic

Current time is: 20-Jul 06:43

All times are UTC + 5



You cannot post new topics in this forum
You cannot reply to topics in this forum
You cannot edit your posts in this forum
You cannot delete your posts in this forum
You cannot vote in polls in this forum
You cannot attach files in this forum
You can download files in this forum