Сын / The Son / Сезон 2 / Серии 1-10 из 10 (Кевин Даулинг, Джереми Уэбб, Олатунде Осунсанми) [2019 г., Драма, Вестерн, WEB-DL 1080p] MVO (LostFilm) + Original Eng

Reply to topic
DL-List and Torrent activity
Size:  23.27 GB   |    Registered:  16 days   |    Completed:  0 times
Seeders:  1  [  0 KB/s  ]   Show peers in full details
 
 
 
 
Author Message

.:Mercury:. ®

Gender: Male

Longevity: 1 year 5 months

Posts: 3405

Карма: 31947 [+]

Наличие запрета:

[Profile] [PM]

Post 01-May-2019 10:27

[Quote]

Сын / The Son- - -Год выпуска: 2019
Страна: США
Жанр: Драма, Вестерн
Продолжительность: ~00:45:00
Перевод: Профессиональный (многоголосый, закадровый) LostFilm--Режиссер: Кевин Даулинг, Джереми Уэбб, Олатунде Осунсанми--В ролях: Пирс Броснан, Генри Гаррет, Занн МаКларнон, Татанка Минс, Паола Нуньес, Элизабет Фрэнсис, Натан Крус, Шэйн Грэхэм, Джесс Вейкслер, Электра Авеллан, Калеб Бёрджесс, Сидни Лукас, Шериф Хачис, Бретт Брэдфорд, Луис Джон Сория, Шон Стоун, Мануэль Уриса--Описание: Илай МакКаллоу (Пирс Броснан) — крупнейший землевладелец во всем Техасе. Несмотря на почтенный возраст, он не потерял хватку и понимает, что времена меняются. Плантации и ранчо скоро окончательно уйдут в прошлое, а будущее останется за нефтью, скрытой в глубинах техасской земли. Попыткам Илая развивать новый бизнес мешают козни конкурентов, крупный военный конфликт и внутрисемейные распри. Старший сын, выросший в тени отца, делает все наперекор Илаю. Внучка, хоть и видит в нем пример настоящего человека, не может смириться с правилами мужского мира, в котором выросла. Параллельно действие разворачивается во времена молодости Илая, когда его семья стала жертвой команчей. После той кровавой расправы выжили только МакКаллоу и его брат Мартин (Сет Меривезер), но оба попали в плен к индейцам. Жизнь научила Илая, что выживает сильнейший, а ради правильных целей хороши любые средства. Неволя и череда трагических событий сделали его жестоким и несгибаемым человеком, виртуозно наживающим себе врагов. Но его желание разбогатеть настолько велико, что помешать ему не сможет ни Бог, ни черт, не говоря уже о таких мелочах, как моральные принципы. На этой земле есть нефть, и Илай МакКаллоу во что бы то ни стало до нее доберется, даже если придется пролить реки крови и предать самых близких.--Доп. информация: Единственный жанр, в котором современное американское телевидение не успело создать проект, способный занять место в истории, — это классический вестерн. Среди множества более-менее успешных шоу только «Ад на колесах» от телеканала AMC может претендовать на звание главного представителя жанра на малых экранах. Логично, что после его успеха руководство AMC решило вновь затронуть схожую тему. Однако их новый вестерн «Сын» рассказывает зрителю не о времени расцвета Дикого Запада, а о его закате. На дворе начало XX века, в Мексике который год идет гражданская война, а жители Техаса вовлечены в последний крупный внутренний конфликт. В основу сюжетной линии положен одноименный исторический бестселлер Филиппа Мейера — писателя, номинированного за это произведение на Пулитцеровскую премию. Мейер также занял должность сценариста и одного из продюсеров сериала. Как и печатный оригинал, драма на примере одной семьи во главе с влиятельным землевладельцем Илаем МакКаллоу (Пирс Броснан) показывает момент смерти Старого Запада. Особое внимание создатели проекта во главе с шоураннером Кевином Мерфи («Отчаянные домохозяйки», «Непокорная Земля») и самим Мейером уделяют тому, что сделало Америку такой, какую мы видим ее сейчас.--Качество: WEB-DL 1080p
Формат: MKV
Видео кодек: H.264
Аудио кодек: AC3
Видео: MPEG4 Video (H264) 1920x1080 23.976fps 6 800 kb/s
Аудио: Dolby AC3 48000Hz stereo 384kbps | Rus, Eng
General
Unique ID : 197955992374525657503249708201756433882 (0x94ECEFF56A769BD88BE4A5BBB24D9DDA)
Complete name : D:\The.Son.S02E01.1080p.rus.LostFilm.TV.mkv
Format : Matroska
Format version : Version 4
File size : 2.44 GiB
Duration : 46 min 8 s
Overall bit rate : 7 570 kb/s
Encoded date : UTC 2019-04-30 13:05:14
Writing application : mkvmerge v9.5.0 ('Quiet Fire') 64bit
Writing library : libebml v1.3.4 + libmatroska v1.4.5
Video
ID : 1
Format : AVC
Format/Info : Advanced Video Codec
Format profile : High@L4.1
Format settings : CABAC / 4 Ref Frames
Format settings, CABAC : Yes
Format settings, ReFrames : 4 frames
Codec ID : V_MPEG4/ISO/AVC
Duration : 46 min 8 s
Bit rate : 6 800 kb/s
Width : 1 920 pixels
Height : 1 080 pixels
Display aspect ratio : 16:9
Frame rate mode : Constant
Frame rate : 23.976 (24000/1001) FPS
Original frame rate : 23.976 (23976/1000) FPS
Color space : YUV
Chroma subsampling : 4:2:0
Bit depth : 8 bits
Scan type : Progressive
Bits/(Pixel*Frame) : 0.137
Stream size : 2.19 GiB (90%)
Writing library : x264 core 112 r1834 a51816a
Encoding settings : cabac=1 / ref=4 / deblock=1:-3:-2 / analyse=0x3:0x113 / me=hex / subme=7 / psy=1 / psy_rd=1.00:0.00 / mixed_ref=1 / me_range=16 / chroma_me=1 / trellis=1 / 8x8dct=1 / cqm=0 / deadzone=21,11 / fast_pskip=1 / chroma_qp_offset=-2 / threads=12 / sliced_threads=0 / nr=0 / decimate=1 / interlaced=0 / constrained_intra=0 / bframes=5 / b_pyramid=2 / b_adapt=1 / b_bias=0 / direct=1 / weightb=1 / open_gop=0 / weightp=2 / keyint=250 / keyint_min=25 / scenecut=40 / intra_refresh=0 / rc_lookahead=40 / rc=2pass / mbtree=1 / bitrate=6800 / ratetol=1.0 / qcomp=0.60 / qpmin=0 / qpmax=51 / qpstep=4 / cplxblur=20.0 / qblur=0.5 / vbv_maxrate=10000 / vbv_bufsize=256000 / ip_ratio=1.40 / aq=1:1.00 / nal_hrd=none
Default : Yes
Forced : No
Audio #1
ID : 2
Format : AC-3
Format/Info : Audio Coding 3
Commercial name : Dolby Digital
Codec ID : A_AC3
Duration : 46 min 7 s
Bit rate mode : Constant
Bit rate : 384 kb/s
Channel(s) : 2 channels
Channel layout : L R
Sampling rate : 48.0 kHz
Frame rate : 31.250 FPS (1536 SPF)
Bit depth : 16 bits
Compression mode : Lossy
Stream size : 127 MiB (5%)
Service kind : Complete Main
Default : Yes
Forced : No
Audio #2
ID : 3
Format : AC-3
Format/Info : Audio Coding 3
Commercial name : Dolby Digital
Codec ID : A_AC3
Duration : 46 min 8 s
Bit rate mode : Constant
Bit rate : 384 kb/s
Channel(s) : 2 channels
Channel layout : L R
Sampling rate : 48.0 kHz
Frame rate : 31.250 FPS (1536 SPF)
Bit depth : 16 bits
Compression mode : Lossy
Stream size : 127 MiB (5%)
Service kind : Complete Main
Default : No
Forced : No

Release was prepared by RG Serials

If your ratio falls below 0.3, you will not be able to download Torrents! More about the rating.

[toptorrent.pw].t5847.torrent
Torrent: Registered [ 2019-07-03 10:31 ] · 4087624FBE1B8DC57946689E5970835635B513EE

Download .torrent

Download

60 KB

Status: checked
Completed: 0 times
Size: 23.27 GB
Rate: 
(Vote: 1)
Has thanked: 2  Thanks   (List)
terms.php


Last edited by .:Mercury:. on 2019-07-03 10:31; edited 8 times in total

.:Mercury:. ®

Gender: Male

Longevity: 1 year 5 months

Posts: 3405

Карма: 31947 [+]

Наличие запрета:

[Profile] [PM]

Post 08-May-2019 09:43 (after 6 days)

[Quote]

+2-я серия

.:Mercury:. ®

Gender: Male

Longevity: 1 year 5 months

Posts: 3405

Карма: 31947 [+]

Наличие запрета:

[Profile] [PM]

Post 15-May-2019 07:24 (after 6 days)

[Quote]

+3-я серия

.:Mercury:. ®

Gender: Male

Longevity: 1 year 5 months

Posts: 3405

Карма: 31947 [+]

Наличие запрета:

[Profile] [PM]

Post 21-May-2019 21:56 (after 6 days)

[Quote]

+4-я серия

.:Mercury:. ®

Gender: Male

Longevity: 1 year 5 months

Posts: 3405

Карма: 31947 [+]

Наличие запрета:

[Profile] [PM]

Post 29-May-2019 07:12 (after 7 days)

[Quote]

+5-я серия

.:Mercury:. ®

Gender: Male

Longevity: 1 year 5 months

Posts: 3405

Карма: 31947 [+]

Наличие запрета:

[Profile] [PM]

Post 04-Jun-2019 16:16 (after 6 days)

[Quote]

+6-я серия

.:Mercury:. ®

Gender: Male

Longevity: 1 year 5 months

Posts: 3405

Карма: 31947 [+]

Наличие запрета:

[Profile] [PM]

Post 12-Jun-2019 11:30 (after 7 days)

[Quote]

+7-я серия

.:Mercury:. ®

Gender: Male

Longevity: 1 year 5 months

Posts: 3405

Карма: 31947 [+]

Наличие запрета:

[Profile] [PM]

Post 19-Jun-2019 11:10 (after 6 days)

[Quote]

+8-я серия

.:Mercury:. ®

Gender: Male

Longevity: 1 year 5 months

Posts: 3405

Карма: 31947 [+]

Наличие запрета:

[Profile] [PM]

Post 26-Jun-2019 10:16 (after 6 days)

[Quote]

+9-я серия

.:Mercury:. ®

Gender: Male

Longevity: 1 year 5 months

Posts: 3405

Карма: 31947 [+]

Наличие запрета:

[Profile] [PM]

Post 03-Jul-2019 10:31 (after 7 days)

[Quote]

2-й сезон
Display posts:    
Reply to topic

Current time is: 20-Jul 06:04

All times are UTC + 5



You cannot post new topics in this forum
You cannot reply to topics in this forum
You cannot edit your posts in this forum
You cannot delete your posts in this forum
You cannot vote in polls in this forum
You cannot attach files in this forum
You can download files in this forum