Благие знамения / Good Omens / Сезон 1 / Серии 1-3 из 6 (Дуглас Маккиннон) [2019 г., Комедия, Фантастика, WEB-DL 1080p] MVO (LostFilm) + Original Eng

Reply to topic
DL-List and Torrent activity
Size:  8.74 GB   |    Registered:  1 day 17 hours   |    Completed:  0 times
Seeders:  4  [  0 KB/s  ]   Show peers in full details
   
 
Author Message

.:Mercury:. ®

Gender: Male

Longevity: 1 year 4 months

Posts: 3323

Карма: 31947 [+]

Наличие запрета:

[Profile] [PM]

Post 04-Jun-2019 10:21

[Quote]

Благие знамения / Good Omens- - -Год выпуска: 2019
Страна: США
Жанр: Комедия, Фантастика
Продолжительность: ~00:51:00
Перевод: Профессиональный (многоголосый, закадровый) LostFilm--Режиссер: Дуглас Маккиннон--В ролях: Майкл Шин, Дэвид Теннант, Фрэнсис МакДорманд, Шан Брук, Дэниэл Мейс, Сэм Тейлор Бак, Джон Хэмм, Адриа Архона, Пол Чахиди, Нед Деннехи--Описание: У семи нянек дитя без глазу. Как оказалось, правило это распространяется и на сверхъестественных существ — демона Кроули (Дэвид Теннант) и ангела Азирафэля (Майкл Шин), у которых дитя и вовсе куда-то запропастилось. И речь не о простом ребенке, а о посланнике ада, Антихристе, чей приход на Землю сулит ей неминуемую гибель. Начальство обеих сторон — Рай и Ад — сделали свои ставки и теперь с замиранием сердец (или что там находится в их груди) ждут великой битвы. Всадники Апокалипсиса уже завели своих железных коней и готовы выезжать. Не готовы к битве лишь двое — те самые демон Кроули и ангел Азирафэль. Они жили на Земле с начала сотворения, присматривали за человечеством, толкали людей на злодеяния или благие поступки, а сами тем временем искренне полюбили Землю и все ее радости. Гибель планеты будет значить никаких больше рок-концертов и раритетных авто для Кроули и старинных книг да вкусных суши для Азирафэля. Два гедониста не возжелали возвращаться домой и решили вопреки распоряжениям своих контор работать вместе. Ведь если не дать Антихристу склониться ни к добру, ни ко злу, он не займет ничью сторону и останется обычным мальчиком. Вот только в ночь рождения младенцев перепутали, и Кроули с Азирафэлем теперь должны найти настоящего беса. Так, всеми завиральными методами, продолжая разыгрывать сцену перед начальством, демон и и ангел отправились искать нужного парнишку. Вот только отсчет времени до апокалипсиса перешел на дни--Доп. информация: «Благие знамения» — давняя мечта писателя-фантаста Нила Геймана, экранизация одного из лучших творений, созданных им в соавторстве с ныне покойным Терри Пратчеттом. На малых экранах уже поселились его Старые и Новые боги, а также дьявольски обольстительный Люцифер, но «Благие знамения» оказались для Нила делом чести. Он обещал своему другу и коллеге Пратчетту, что сделает все правильно, а потому сам возглавил съемки фэнтези, пропитанного тонким английским юмором и окутанного сказочной атмосферой. Сериал, следуя духу печатного оригинала, высмеивает сакральные поп-культурные образы и иронизирует над нашим бытом — начиная от пробок на загруженных трассах (дело рук демона), заканчивая инструкциями к технике (а вот тут уже люди превзошли и даже вдохновили ад на новые пакости). Сериал «Благие знамения» остроумен и увлекателен сам по себе, но если вы из тех, кто соглашается на просмотр проекта, открыв раздел «В главных ролях», то здесь вас ждет настоящая феерия. Все актеры здесь исключительно по любви к оригиналу, а возглавлять этот звездный капустник выпало очаровательным Майклу Шину и Дэвиду Теннанту.--Качество: WEB-DL 1080p
Формат: MKV
Видео кодек: H.264
Аудио кодек: AC3
Видео: MPEG4 Video (H264) 1920x1080 25fps 6 800 kb/s
Аудио: Dolby AC3 48000Hz stereo 384kbps 2ch | Rus, Eng
General
Unique ID : 179225194410873311719040832729779974636 (0x86D584519F39A871BF480E7F70FAB1EC)
Complete name : F:\Restored\Good.Omens.S01E01.1080p.rus.LostFilm.TV.mkv
Format : Matroska
Format version : Version 4
File size : 2.71 GiB
Duration : 51 min 24 s
Overall bit rate : 7 543 kb/s
Encoded date : UTC 2019-06-03 21:35:01
Writing application : mkvmerge v9.5.0 ('Quiet Fire') 64bit
Writing library : libebml v1.3.4 + libmatroska v1.4.5
Video
ID : 1
Format : AVC
Format/Info : Advanced Video Codec
Format profile : High@L4.1
Format settings : CABAC / 4 Ref Frames
Format settings, CABAC : Yes
Format settings, Reference fra : 4 frames
Codec ID : V_MPEG4/ISO/AVC
Duration : 51 min 24 s
Bit rate : 6 800 kb/s
Width : 1 920 pixels
Height : 1 080 pixels
Display aspect ratio : 16:9
Frame rate mode : Constant
Frame rate : 25.000 FPS
Color space : YUV
Chroma subsampling : 4:2:0
Bit depth : 8 bits
Scan type : Progressive
Bits/(Pixel*Frame) : 0.131
Stream size : 2.43 GiB (90%)
Writing library : x264 core 112 r1834 a51816a
Encoding settings : cabac=1 / ref=4 / deblock=1:-3:-2 / analyse=0x3:0x113 / me=hex / subme=7 / psy=1 / psy_rd=1.00:0.00 / mixed_ref=1 / me_range=16 / chroma_me=1 / trellis=1 / 8x8dct=1 / cqm=0 / deadzone=21,11 / fast_pskip=1 / chroma_qp_offset=-2 / threads=6 / sliced_threads=0 / nr=0 / decimate=1 / interlaced=0 / constrained_intra=0 / bframes=5 / b_pyramid=2 / b_adapt=1 / b_bias=0 / direct=1 / weightb=1 / open_gop=0 / weightp=2 / keyint=250 / keyint_min=25 / scenecut=40 / intra_refresh=0 / rc_lookahead=40 / rc=2pass / mbtree=1 / bitrate=6800 / ratetol=1.0 / qcomp=0.60 / qpmin=0 / qpmax=51 / qpstep=4 / cplxblur=20.0 / qblur=0.5 / vbv_maxrate=10000 / vbv_bufsize=256000 / ip_ratio=1.40 / aq=1:1.00 / nal_hrd=none
Default : Yes
Forced : No
Audio #1
ID : 2
Format : AC-3
Format/Info : Audio Coding 3
Commercial name : Dolby Digital
Codec ID : A_AC3
Duration : 51 min 24 s
Bit rate mode : Constant
Bit rate : 384 kb/s
Channel(s) : 2 channels
Channel layout : L R
Sampling rate : 48.0 kHz
Frame rate : 31.250 FPS (1536 SPF)
Bit depth : 16 bits
Compression mode : Lossy
Stream size : 141 MiB (5%)
Service kind : Complete Main
Default : Yes
Forced : No
Audio #2
ID : 3
Format : AC-3
Format/Info : Audio Coding 3
Commercial name : Dolby Digital
Codec ID : A_AC3
Duration : 51 min 24 s
Bit rate mode : Constant
Bit rate : 384 kb/s
Channel(s) : 2 channels
Channel layout : L R
Sampling rate : 48.0 kHz
Frame rate : 31.250 FPS (1536 SPF)
Bit depth : 16 bits
Compression mode : Lossy
Stream size : 141 MiB (5%)
Service kind : Complete Main
Default : No
Forced : No

Release was prepared by RG Serials

If your ratio falls below 0.3, you will not be able to download Torrents! More about the rating.

[toptorrent.pw].t5992.torrent
Torrent: Registered [ Yesterday 00:25 ] · 3599CFB2E015E4E6BB9BD99883DBD70E52218B36

Download .torrent

Download

23 KB

Status: T temporary
Completed: 0 times
Size: 8.74 GB
Rate: 
(Vote: 1)
Has thanked: 2  Thanks   (List)
terms.php


Last edited by .:Mercury:. on Yesterday 00:25; edited 1 time in total

.:Mercury:. ®

Gender: Male

Longevity: 1 year 4 months

Posts: 3323

Карма: 31947 [+]

Наличие запрета:

[Profile] [PM]

Post 11-Jun-2019 12:39 (after 7 days)

[Quote]

2-я серия

.:Mercury:. ®

Gender: Male

Longevity: 1 year 4 months

Posts: 3323

Карма: 31947 [+]

Наличие запрета:

[Profile] [PM]

Post Yesterday 00:26 (after 6 days)

[Quote]

3-я серия
Display posts:    
Reply to topic

Current time is: 19-Jun 18:16

All times are UTC + 5



You cannot post new topics in this forum
You cannot reply to topics in this forum
You cannot edit your posts in this forum
You cannot delete your posts in this forum
You cannot vote in polls in this forum
You cannot attach files in this forum
You can download files in this forum