Джессика Джонс / Jessica Jones / Сезон 3 / Серии 1-13 из 13 (Мелисса Розенберг) [2019 г., антастика, боевик, драма, криминал, экранизация комиксов, WEB-DL 1080p] MVO (LostFilm) + OriginalEng

Reply to topic

DL-List and Torrent activity
Size:  35.06 GB   |    Registered:  4 months 1 day   |    Completed:  0 times

Seeder not seen: 2 months 2 days

 
 
 
 
Author Message

.:Mercury:. ®

Gender: Male

Longevity: 1 year 9 months

Posts: 3585

Карма: 31947 [+]

Наличие запрета:

[Profile] [PM]

Post 18-Jun-2019 10:03

[Quote]

Джессика Джонс / Jessica Jones- -Год выпуска: 2019
Страна: США
Жанр: антастика, боевик, драма, криминал, экранизация комиксов
Продолжительность: ~00:52:00
Перевод: Профессиональный (многоголосый, закадровый) LostFilm--Режиссер: Мелисса Розенберг--В ролях: Кристен Риттер, Рэйчел Тейлор, Ика Дэрвилл, Дж.Р. Рамирез, Кэрри-Энн Мосс, Дэвид Теннант и др.--Описание: Не так давно Джессика Джонс была супергероем, но ее недолгое пребывание в этой роли закончилось трагедией. Сейчас она восстанавливает свою личную жизнь и карьеру вспыльчивого, язвительного и задиристого частного детектива в Адской Кухне. Джессика пытается преодолеть ненависть к себе и справиться с посттравматическим стрессом, а также борется с внутренними и внешними демонами. А свои экстраординарные способности она использует для защиты тех, кто в ней нуждается, особенно если они могут заплатить за это.--Качество: WEB-DL 1080p
Формат: MKV
Видео кодек: H.264
Аудио кодек: AC3
Видео: MPEG4 Video (H264) 1920x1080 23.976fps 6 800 kb/s
Аудио: Dolby AC3 48000Hz stereo 384kbps 2ch | Rus, Eng
General
Unique ID : 225711337572703324519845692335374315705 (0xA9CE6C21384FF259AAB9F530A47DB0B9)
Complete name : F:\Restored\Marvels.Jessica.Jones.S03E01.1080p.rus.LostFilm.TV.mkv
Format : Matroska
Format version : Version 4
File size : 2.75 GiB
Duration : 52 min 4 s
Overall bit rate : 7 566 kb/s
Encoded date : UTC 2019-06-17 18:43:32
Writing application : mkvmerge v9.5.0 ('Quiet Fire') 64bit
Writing library : libebml v1.3.4 + libmatroska v1.4.5
Video
ID : 1
Format : AVC
Format/Info : Advanced Video Codec
Format profile : High@L4.1
Format settings : CABAC / 4 Ref Frames
Format settings, CABAC : Yes
Format settings, Reference fra : 4 frames
Codec ID : V_MPEG4/ISO/AVC
Duration : 52 min 4 s
Bit rate : 6 800 kb/s
Width : 1 920 pixels
Height : 1 080 pixels
Display aspect ratio : 16:9
Frame rate mode : Constant
Frame rate : 23.976 (24000/1001) FPS
Original frame rate : 23.976 (23976/1000) FPS
Color space : YUV
Chroma subsampling : 4:2:0
Bit depth : 8 bits
Scan type : Progressive
Bits/(Pixel*Frame) : 0.137
Stream size : 2.47 GiB (90%)
Writing library : x264 core 112 r1834 a51816a
Encoding settings : cabac=1 / ref=4 / deblock=1:-3:-2 / analyse=0x3:0x113 / me=hex / subme=7 / psy=1 / psy_rd=1.00:0.00 / mixed_ref=1 / me_range=16 / chroma_me=1 / trellis=1 / 8x8dct=1 / cqm=0 / deadzone=21,11 / fast_pskip=1 / chroma_qp_offset=-2 / threads=12 / sliced_threads=0 / nr=0 / decimate=1 / interlaced=0 / constrained_intra=0 / bframes=5 / b_pyramid=2 / b_adapt=1 / b_bias=0 / direct=1 / weightb=1 / open_gop=0 / weightp=2 / keyint=250 / keyint_min=25 / scenecut=40 / intra_refresh=0 / rc_lookahead=40 / rc=2pass / mbtree=1 / bitrate=6800 / ratetol=1.0 / qcomp=0.60 / qpmin=0 / qpmax=51 / qpstep=4 / cplxblur=20.0 / qblur=0.5 / vbv_maxrate=10000 / vbv_bufsize=256000 / ip_ratio=1.40 / aq=1:1.00 / nal_hrd=none
Default : Yes
Forced : No
Audio #1
ID : 2
Format : AC-3
Format/Info : Audio Coding 3
Commercial name : Dolby Digital
Codec ID : A_AC3
Duration : 52 min 4 s
Bit rate mode : Constant
Bit rate : 384 kb/s
Channel(s) : 2 channels
Channel layout : L R
Sampling rate : 48.0 kHz
Frame rate : 31.250 FPS (1536 SPF)
Bit depth : 16 bits
Compression mode : Lossy
Stream size : 143 MiB (5%)
Service kind : Complete Main
Default : Yes
Forced : No
Audio #2
ID : 3
Format : AC-3
Format/Info : Audio Coding 3
Commercial name : Dolby Digital
Codec ID : A_AC3
Duration : 52 min 4 s
Bit rate mode : Constant
Bit rate : 384 kb/s
Channel(s) : 2 channels
Channel layout : L R
Sampling rate : 48.0 kHz
Frame rate : 31.250 FPS (1536 SPF)
Bit depth : 16 bits
Compression mode : Lossy
Stream size : 143 MiB (5%)
Service kind : Complete Main
Default : No
Forced : No

Release was prepared by RG Serials



If your ratio falls below 0.3, you will not be able to download Torrents! More about the rating.

[toptorrent.pw].t6029.torrent
Torrent: Registered [ 2019-07-15 17:50 ] · 922F8E93B3FD84B6F614D66FA5DC251DE275588D

Download .torrent

Download

177 KB

Status: checked
Completed: 0 times
Size: 35.06 GB
Rate: 
(Vote: 1)
Has thanked: 1  Thanks   (List)
terms.php


Last edited by .:Mercury:. on 2019-07-15 17:50; edited 9 times in total

.:Mercury:. ®

Gender: Male

Longevity: 1 year 9 months

Posts: 3585

Карма: 31947 [+]

Наличие запрета:

[Profile] [PM]

Post 20-Jun-2019 09:58 (after 1 day 23 hours)

[Quote]

+2 

.:Mercury:. ®

Gender: Male

Longevity: 1 year 9 months

Posts: 3585

Карма: 31947 [+]

Наличие запрета:

[Profile] [PM]

Post 22-Jun-2019 17:03 (after 2 days 7 hours)

[Quote]

+3 

.:Mercury:. ®

Gender: Male

Longevity: 1 year 9 months

Posts: 3585

Карма: 31947 [+]

Наличие запрета:

[Profile] [PM]

Post 24-Jun-2019 17:01 (after 1 day 23 hours)

[Quote]

+4 

.:Mercury:. ®

Gender: Male

Longevity: 1 year 9 months

Posts: 3585

Карма: 31947 [+]

Наличие запрета:

[Profile] [PM]

Post 27-Jun-2019 00:49 (after 2 days 7 hours)

[Quote]

+5 

.:Mercury:. ®

Gender: Male

Longevity: 1 year 9 months

Posts: 3585

Карма: 31947 [+]

Наличие запрета:

[Profile] [PM]

Post 29-Jun-2019 13:26 (after 2 days 12 hours)

[Quote]

+6 

.:Mercury:. ®

Gender: Male

Longevity: 1 year 9 months

Posts: 3585

Карма: 31947 [+]

Наличие запрета:

[Profile] [PM]

Post 01-Jul-2019 18:43 (after 2 days 5 hours)

[Quote]

+7 

.:Mercury:. ®

Gender: Male

Longevity: 1 year 9 months

Posts: 3585

Карма: 31947 [+]

Наличие запрета:

[Profile] [PM]

Post 04-Jul-2019 01:40 (after 2 days 6 hours)

[Quote]

+8 

.:Mercury:. ®

Gender: Male

Longevity: 1 year 9 months

Posts: 3585

Карма: 31947 [+]

Наличие запрета:

[Profile] [PM]

Post 14-Jul-2019 12:30 (after 10 days)

[Quote]

+9-12 

.:Mercury:. ®

Gender: Male

Longevity: 1 year 9 months

Posts: 3585

Карма: 31947 [+]

Наличие запрета:

[Profile] [PM]

Post 15-Jul-2019 17:50 (after 1 day 5 hours)

[Quote]

3 сезон 
Display posts:    
Reply to topic

Current time is: 17-Nov 13:38

All times are UTC + 5



You cannot post new topics in this forum
You cannot reply to topics in this forum
You cannot edit your posts in this forum
You cannot delete your posts in this forum
You cannot vote in polls in this forum
You cannot attach files in this forum
You can download files in this forum