Носферату / Страна Рождества / NOS4A2 / Сезон 1 / Серии 1-10 из 10 (Кари Скогланд, Тим Соутэм, Джереми Уэбб) [2019 г., Ужасы, Драма, WEB-DL 1080p] MVO (LostFilm) + Original

Reply to topic
DL-List and Torrent activity
Size:  24.38 GB   |    Registered:  16 days   |    Completed:  0 times
Seeders:  3  [  0 KB/s  ]   Leechers:  1  [  0 KB/s  ]   Show peers in full details
   
 
Author Message

.:Mercury:. ®

Gender: Male

Longevity: 1 year 5 months

Posts: 3409

Карма: 31947 [+]

Наличие запрета:

[Profile] [PM]

Post 06-Jun-2019 07:39

[Quote]

Носферату / Страна Рождества / NOS4A2- - -Год выпуска: 2019
Страна: США
Жанр: Ужасы, Драма
Продолжительность: ~00:55:00
Перевод: Профессиональный (многоголосый, закадровый) LostFilm--Режиссер: Кари Скогланд, Тим Соутэм, Джереми Уэбб--В ролях: Андресито Гермосен Де Ла Крус, Эбон Мосс-Бакрак, Закари Куинто, Эшли Каммингс, Дэрби Кэмп, Рармиан Ньютон, Эшер Майлз Фаллика, Далтон Херрод, Коннор Хенелл, Амелия Людвик--Описание: Разве найдется на свете ребенок, который не хотел бы получить от Санты мешок подарков прямо посреди лета?.. Доверчивые ребятишки весьма облегчают жизнь Чарльзу Мэнксу (Закари Куинто), маньяку, пожирающему детские души, чтобы оставаться вечно молодым. Он забирает у своих жертв боль и сожаления, а взамен дарует радость и бесконечное счастье в выдуманной им стране Рождества. Здесь никто не грустит, да и жизнь кажется сплошной малиной. Правда, имеются побочные эффекты: лишившись души, детки превращаются в остервенелых монстров с острыми зубами. Впрочем, последствия для Мэнкса значения не имеют, ведь он спасает бедных ребят от жестокой жизни в окружении безразличных и эгоистичных родителей. Однако талантливая художница Вик МакКуинн (Эшли Каммингс) готова поспорить с таким пониманием счастья и пойдет на все, чтобы остановить психопата и уничтожить его идиллическую страну маленьких монстров. Поможет ей в этом удивительная способность находить потерянные вещи. Нужно лишь проехать по старому мосту, и Вик окажется в нужном месте в нужное время. Вот только Мэнкс недолюбливает тех, кто плохо себя ведет, и лучше бы Вик не попадать в его список проказников, иначе она рискует и сама навеки остаться в стране Рождества…--Доп. информация: «Носферату» — мистический хоррор канала AMC, основанный на романе «Страна Рождества». Его автор Джо Хилл, сын великого и ужасного Стивена Кинга, только начинает покорять мир кино и телевидения. Руководство кабельной телесети недаром обратило внимание на «Страну Рождества», которую многие считают лучшим произведением Хилла. Эта страшная сказка о маньяке Чарльзе Мэнксе, питающемся душами маленьких детей, сразу после выхода в печать в 2013 году очаровала читателей своей многогранностью. Создатели адаптации постарались сохранить в «Носферату» все, за что так ценится оригинал: элементы хоррора (именно на них сделан упор), мистицизм и реалистичных героев с проработанными до мелочей характерами и мотивами. Главный антагонист сериала Чарльз Мэнкс невероятно притягателен, когда находится в бодром состоянии духа, и до мурашек страшен, когда превращается в морщинистого старика с желтыми зубами. На роль Мэнкса продюсеры позвали номинанта на премию «Эмми» Закари Куинто, в чьих злодейских способностях после «Американской истории ужасов» и «Героев» никто не сомневается. Благодаря «Носферату» зрителей ждет незабываемое путешествие в страну Рождества в компании детишек-монстров, бессмертного психопата и одной-единственной девушки, способной его остановить.--Качество: WEB-DL 1080p
Формат: MKV
Видео кодек: H.264
Аудио кодек: AC3
Видео: MPEG4 Video (H264) 1920x1080 23.976fps 6 800 kb/s
Аудио: Dolby AC3 48000Hz stereo 384kbps 2ch | Rus, Eng
General
Unique ID : 175918511551265996439403100936290184183 (0x8458AC44478914EB92E4BB8968302BF7)
Complete name : F:\Restored\NOS4A2.S01E01.1080p.rus.LostFilm.TV.mkv
Format : Matroska
Format version : Version 4
File size : 2.94 GiB
Duration : 55 min 40 s
Overall bit rate : 7 566 kb/s
Encoded date : UTC 2019-06-05 17:14:00
Writing application : mkvmerge v9.5.0 ('Quiet Fire') 64bit
Writing library : libebml v1.3.4 + libmatroska v1.4.5
Video
ID : 1
Format : AVC
Format/Info : Advanced Video Codec
Format profile : High@L4.1
Format settings : CABAC / 4 Ref Frames
Format settings, CABAC : Yes
Format settings, Reference fra : 4 frames
Codec ID : V_MPEG4/ISO/AVC
Duration : 55 min 40 s
Bit rate : 6 800 kb/s
Width : 1 920 pixels
Height : 1 080 pixels
Display aspect ratio : 16:9
Frame rate mode : Constant
Frame rate : 23.976 (24000/1001) FPS
Original frame rate : 23.976 (23976/1000) FPS
Color space : YUV
Chroma subsampling : 4:2:0
Bit depth : 8 bits
Scan type : Progressive
Bits/(Pixel*Frame) : 0.137
Stream size : 2.64 GiB (90%)
Writing library : x264 core 112 r1834 a51816a
Encoding settings : cabac=1 / ref=4 / deblock=1:-3:-2 / analyse=0x3:0x113 / me=hex / subme=7 / psy=1 / psy_rd=1.00:0.00 / mixed_ref=1 / me_range=16 / chroma_me=1 / trellis=1 / 8x8dct=1 / cqm=0 / deadzone=21,11 / fast_pskip=1 / chroma_qp_offset=-2 / threads=12 / sliced_threads=0 / nr=0 / decimate=1 / interlaced=0 / constrained_intra=0 / bframes=5 / b_pyramid=2 / b_adapt=1 / b_bias=0 / direct=1 / weightb=1 / open_gop=0 / weightp=2 / keyint=250 / keyint_min=25 / scenecut=40 / intra_refresh=0 / rc_lookahead=40 / rc=2pass / mbtree=1 / bitrate=6800 / ratetol=1.0 / qcomp=0.60 / qpmin=0 / qpmax=51 / qpstep=4 / cplxblur=20.0 / qblur=0.5 / vbv_maxrate=10000 / vbv_bufsize=256000 / ip_ratio=1.40 / aq=1:1.00 / nal_hrd=none
Default : Yes
Forced : No
Audio #1
ID : 2
Format : AC-3
Format/Info : Audio Coding 3
Commercial name : Dolby Digital
Codec ID : A_AC3
Duration : 55 min 40 s
Bit rate mode : Constant
Bit rate : 384 kb/s
Channel(s) : 2 channels
Channel layout : L R
Sampling rate : 48.0 kHz
Frame rate : 31.250 FPS (1536 SPF)
Bit depth : 16 bits
Compression mode : Lossy
Stream size : 153 MiB (5%)
Service kind : Complete Main
Default : Yes
Forced : No
Audio #2
ID : 3
Format : AC-3
Format/Info : Audio Coding 3
Commercial name : Dolby Digital
Codec ID : A_AC3
Duration : 55 min 40 s
Bit rate mode : Constant
Bit rate : 384 kb/s
Channel(s) : 2 channels
Channel layout : L R
Sampling rate : 48.0 kHz
Frame rate : 31.250 FPS (1536 SPF)
Bit depth : 16 bits
Compression mode : Lossy
Stream size : 153 MiB (5%)
Service kind : Complete Main
Default : No
Forced : No

Release was prepared by RG Serials

If your ratio falls below 0.3, you will not be able to download Torrents! More about the rating.

[toptorrent.pw].t5996.torrent
Torrent: Registered [ 2019-07-05 06:48 ] · 483FB642BC6921A1171AE94B91775A2F1040A794

Download .torrent

Download

62 KB

Status: checked
Completed: 0 times
Size: 24.38 GB
Rate: 
(Vote: 1)
Has thanked: 1  Thanks   (List)
terms.php


Last edited by .:Mercury:. on 2019-07-05 06:48; edited 5 times in total

.:Mercury:. ®

Gender: Male

Longevity: 1 year 5 months

Posts: 3409

Карма: 31947 [+]

Наличие запрета:

[Profile] [PM]

Post 10-Jun-2019 10:21 (after 4 days)

[Quote]

+2

.:Mercury:. ®

Gender: Male

Longevity: 1 year 5 months

Posts: 3409

Карма: 31947 [+]

Наличие запрета:

[Profile] [PM]

Post 13-Jun-2019 10:31 (after 3 days)

[Quote]

+3

.:Mercury:. ®

Gender: Male

Longevity: 1 year 5 months

Posts: 3409

Карма: 31947 [+]

Наличие запрета:

[Profile] [PM]

Post 16-Jun-2019 21:15 (after 3 days)

[Quote]

+4

.:Mercury:. ®

Gender: Male

Longevity: 1 year 5 months

Posts: 3409

Карма: 31947 [+]

Наличие запрета:

[Profile] [PM]

Post 20-Jun-2019 09:13 (after 3 days)

[Quote]

+5

.:Mercury:. ®

Gender: Male

Longevity: 1 year 5 months

Posts: 3409

Карма: 31947 [+]

Наличие запрета:

[Profile] [PM]

Post 24-Jun-2019 00:22 (after 3 days)

[Quote]

+6

.:Mercury:. ®

Gender: Male

Longevity: 1 year 5 months

Posts: 3409

Карма: 31947 [+]

Наличие запрета:

[Profile] [PM]

Post 27-Jun-2019 06:48 (after 3 days)

[Quote]

+7

.:Mercury:. ®

Gender: Male

Longevity: 1 year 5 months

Posts: 3409

Карма: 31947 [+]

Наличие запрета:

[Profile] [PM]

Post 05-Jul-2019 06:48 (after 8 days)

[Quote]

1-й сезон
Display posts:    
Reply to topic

Current time is: 21-Jul 21:51

All times are UTC + 5



You cannot post new topics in this forum
You cannot reply to topics in this forum
You cannot edit your posts in this forum
You cannot delete your posts in this forum
You cannot vote in polls in this forum
You cannot attach files in this forum
You can download files in this forum