Фердинанд / Ferdinand (Карлос Салдана) [2017, Семейный, комедия, мультфильм, BDRip-AVC] DUB [Лицензия] Original Eng | Sub Rus, Eng

Reply to topic

DL-List and Torrent activity
Size:  2.23 GB   |    Registered:  1 year 6 months   |    Completed:  4 times
Seeders:  7  [  0 KB/s  ]   Show peers in full details
   
 
Author Message

Gigabyte ®

Gender: Unknown

Longevity: 1 year 7 months

Posts: 45

Карма: 355 [+]

Наличие запрета:

[Profile] [PM]

Post 28-Feb-2018 16:02

[Quote]

Фердинанд / Ferdinand- Год выпуска: 2017
Страна: США
Жанр: Семейный, комедия, мультфильм
Продолжительность: 01:48:12
Перевод: Профессиональный (дублированный) | [Лицензия]
Субтитры: Русские (полные), Английские (полные, SDH)
Оригинальная аудиодорожка: Английская-Режиссёр: Карлос Салдана
В ролях: Джон Сина, Кейт МакКиннон, Дэвид Теннант, Бобби Каннавейл, Энтони Андерсон, Джек Гор, Джет Юргенсмейер, Найл Диас, Колин Х. Мерфи, Карлос Салдана-Описание: Фердинанд — самый добродушный бык во всей Испании. Несмотря на внушительные размеры и недюжинную силу, он с детства предпочитал сидеть на лужайке и любоваться цветами вместо того, чтобы бодаться с другими быками. По нелепой случайности Фердинанд был выбран среди других соплеменников для участия в бое быков в Мадриде.-Качество видео: BDRip-AVC
Формат: MKV
Видео: 1152x482 (2,40:1), 23.976 fps, x264 ~1992 kbps avg, 0.150 bit/pixel
Аудио #1: 48 kHz, AC3 Dolby Digital, 3/2 (L,C,R,l,r) + LFE ch, ~448.00 kbps avg | RUS
Аудио #2: 48 kHz, AC3 Dolby Digital, 3/2 (L,C,R,l,r) + LFE ch, ~448.00 kbps avg | ENG
Формат субтитров: Softsub (.srt*)
--
Общее
Полное имя : Ferdinand_BDRip-AVC_by_Dalemake.mkv
Формат : Matroska
Версия формата : Version 4 / Version 2
Размер файла : 2,23 Гбайт
Продолжительность : 1 ч. 48 м.
Общий поток : 2947 Кбит/сек
Название фильма : [Ferdinand_2017_All Films_by Dalemake]
Дата кодирования : UTC 2018-03-15 19:20:11
Программа кодирования : mkvmerge v7.8.0 ('River Man') 32bit built on Apr 3 2015 12:11:22
Библиотека кодирования : libebml v1.3.1 + libmatroska v1.4.2
DURATION : 01:43:00.707000000
NUMBER_OF_FRAMES : 1812
NUMBER_OF_BYTES : 44998
_STATISTICS_WRITING_APP : mkvmerge v7.8.0 ('River Man') 32bit built on Apr 3 2015 12:11:22
_STATISTICS_WRITING_DATE_UTC : 2018-03-15 19:20:11
_STATISTICS_TAGS : BPS DURATION NUMBER_OF_FRAMES NUMBER_OF_BYTES
Видео
Идентификатор : 1
Формат : AVC
Формат/Информация : Advanced Video Codec
Профиль формата : High@L4.1
Параметр CABAC формата : Да
Параметр ReFrames формата : 11 кадров
Идентификатор кодека : V_MPEG4/ISO/AVC
Продолжительность : 1 ч. 48 м.
Битрейт : 1992 Кбит/сек
Ширина : 1152 пикселя
Высота : 482 пикселя
Соотношение сторон : 2,40:1
Частота кадров : 23,976 кадра/сек
Цветовое пространство : YUV
Субдискретизация насыщенности : 4:2:0
Битовая глубина : 8 бит
Тип развёртки : Прогрессивная
Бит/(Пиксели*Кадры) : 0.150
Размер потока : 1,51 Гбайт (68%)
Заголовок : [Ferdinand_2017_All Films_by Dalemake]
Библиотека кодирования : x264 core 152 r2851kMod ba24899
Настройки программы : cabac=1 / ref=11 / deblock=1:-3:-2 / analyse=0x3:0x133 / me=umh / subme=10 / psy=1 / fade_compensate=0.00 / psy_rd=1.00:0.00 / mixed_ref=1 / me_range=48 / chroma_me=1 / trellis=2 / 8x8dct=1 / cqm=0 / deadzone=21,11 / fast_pskip=1 / chroma_qp_offset=-4 / threads=6 / lookahead_threads=1 / sliced_threads=0 / nr=0 / decimate=0 / interlaced=0 / bluray_compat=0 / constrained_intra=0 / bframes=10 / b_pyramid=2 / b_adapt=2 / b_bias=0 / direct=1 / weightb=1 / open_gop=0 / weightp=2 / keyint=240 / keyint_min=23 / scenecut=40 / intra_refresh=0 / rc_lookahead=60 / rc=crf / mbtree=0 / crf=18.1000 / qcomp=0.60 / qpmin=0 / qpmax=69 / qpstep=4 / vbv_maxrate=50000 / vbv_bufsize=62500 / crf_max=0.0 / nal_hrd=none / filler=0 / ip_ratio=1.40 / pb_ratio=1.35 / aq=1:1.00
Default : Да
Forced : Нет
Аудио #1
Идентификатор : 2
Формат : AC-3
Формат/Информация : Audio Coding 3
Расширение режима : CM (complete main)
Параметр Endianness формата : Big
Идентификатор кодека : A_AC3
Продолжительность : 1 ч. 48 м.
Вид битрейта : Постоянный
Битрейт : 448 Кбит/сек
Каналы : 6 каналов
Расположение каналов : Front: L C R, Side: L R, LFE
Частота : 48,0 КГц
Битовая глубина : 16 бит
Метод сжатия : С потерями
Размер потока : 347 Мбайт (15%)
Заголовок : Dub - BD EUR
Язык : Russian
Default : Да
Forced : Нет
Аудио #2
Идентификатор : 3
Формат : AC-3
Формат/Информация : Audio Coding 3
Расширение режима : CM (complete main)
Параметр Endianness формата : Big
Идентификатор кодека : A_AC3
Продолжительность : 1 ч. 48 м.
Вид битрейта : Постоянный
Битрейт : 448 Кбит/сек
Каналы : 6 каналов
Расположение каналов : Front: L C R, Side: L R, LFE
Частота : 48,0 КГц
Битовая глубина : 16 бит
Метод сжатия : С потерями
Размер потока : 347 Мбайт (15%)
Заголовок : Original
Язык : English
Default : Нет
Forced : Нет
Текст #1
Идентификатор : 4
Формат : UTF-8
Идентификатор кодека : S_TEXT/UTF8
Идентификатор кодека/Информация : UTF-8 Plain Text
Заголовок : Full
Язык : Russian
Default : Нет
Forced : Нет
Текст #2
Идентификатор : 5
Формат : UTF-8
Идентификатор кодека : S_TEXT/UTF8
Идентификатор кодека/Информация : UTF-8 Plain Text
Заголовок : Full
Язык : English
Default : Нет
Forced : Нет
Текст #3
Идентификатор : 6
Формат : UTF-8
Идентификатор кодека : S_TEXT/UTF8
Идентификатор кодека/Информация : UTF-8 Plain Text
Заголовок : Full - SDH
Язык : English
Default : Нет
Forced : Нет
Меню
00:00:00.000 : en:00:00:00.000
00:05:20.028 : en:00:05:20.028
00:10:17.951 : en:00:10:17.951
00:13:59.589 : en:00:13:59.589
00:22:33.060 : en:00:22:33.060
00:29:23.178 : en:00:29:23.178
00:37:09.519 : en:00:37:09.519
00:41:04.587 : en:00:41:04.587
00:48:26.904 : en:00:48:26.904
00:56:16.498 : en:00:56:16.498
01:02:38.463 : en:01:02:38.463
01:10:57.003 : en:01:10:57.003
01:18:41.467 : en:01:18:41.467
01:24:05.791 : en:01:24:05.791
01:30:25.629 : en:01:30:25.629
01:35:58.753 : en:01:35:58.753
01:39:33.968 : en:01:39:33.968
01:45:20.105 : en:01:45:20.105
01:52:55.227 : en:01:52:55.227
01:59:45.011 : en:01:59:45.011

Release was prepared by RG Cinema



If your ratio falls below 0.3, you will not be able to download Torrents! More about the rating.

[toptorrent.pw].t1271.torrent
Torrent: Registered [ 2018-03-17 21:48 ] · 13EF01DCDD9F360A8FE65A2382C6EF7E3D9D5A36

Download .torrent

Download

12 KB

Status: T temporary
Completed: 4 times
Size: 2.23 GB
Rate: 
(Vote: 1)
Has thanked: 1  Thanks   (List)
terms.php
Display posts:    
Reply to topic

Current time is: 20-Sep 15:04

All times are UTC + 5



You cannot post new topics in this forum
You cannot reply to topics in this forum
You cannot edit your posts in this forum
You cannot delete your posts in this forum
You cannot vote in polls in this forum
You cannot attach files in this forum
You can download files in this forum