Медики Чикаго / Chicago Med / Сезон: 4 / Серии: 1-22 из 22 (Майкл Ваксман, Фред Бернер, Чарльз С. Кэрролл) [2018, драма, WEB-DLRip] (VO : Денис Шадинский)

Reply to topic

DL-List and Torrent activity
Size:  12.71 GB   |    Registered:  2 months 13 days   |    Completed:  0 times

Seeder not seen: 1 month

 
 
 
 
Author Message

.:Mercury:. ®

Gender: Male

Longevity: 1 year 8 months

Posts: 3566

Карма: 31947 [+]

Наличие запрета:

[Profile] [PM]

Post 15-Oct-2018 11:29

[Quote]

Медики Чикаго / Chicago Med- -Год выпуска: 2018
Страна: США
Жанр: драма
Продолжительность: 1х 00:41:00
Перевод: Любительский одноголосый закадровый
Доп. инфо о переводе: Денис Шадинский--Режиссёр: Майкл Ваксман , Фред Бернер , Чарльз С. Кэрролл--В ролях: Ник Гелфусс , Йайа ДаКоста , Торри ДеВито , Колин Доннелл , Брайан Ти , Марлайн Эффлэк , С. Ипейта Меркерсон , Оливер Платт , Рэйчел ДиПилло , Лорена Диас--Описание: Сериал рассказывает о команде врачей, работающих в чикагской больнице. Каждый день им приходится работать в полном хаосе и разбираться с уникальными случаями.--Качество видео: WEB-DLRip
Формат: AVI-Видео: Xvid 720x400 23.976fps 1799kbps
Аудио: Dolby AC3 48000Hz stereo 192kbps 2ch
General
Complete name : F:\Ртуть\Сериалы\chicago_med_s04e01.avi
Format : AVI
Format/Info : Audio Video Interleave
File size : 599 MiB
Duration : 41 min 52 s
Overall bit rate : 2 000 kb/s
Video
ID : 0
Format : MPEG-4 Visual
Format profile : Advanced Simple@L5
Format settings : BVOP1 / Custom Matrix
Format settings, BVOP : 1
Format settings, QPel : No
Format settings, GMC : No warppoints
Format settings, Matrix : Custom
Codec ID : XVID
Codec ID/Hint : XviD
Duration : 41 min 52 s
Bit rate : 1 800 kb/s
Width : 720 pixels
Height : 400 pixels
Display aspect ratio : 16:9
Frame rate : 23.976 (24000/1001) FPS
Color space : YUV
Chroma subsampling : 4:2:0
Bit depth : 8 bits
Scan type : Progressive
Compression mode : Lossy
Bits/(Pixel*Frame) : 0.261
Stream size : 539 MiB (90%)
Writing library : XviD 73
Audio
ID : 1
Format : AC-3
Format/Info : Audio Coding 3
Commercial name : Dolby Digital
Codec ID : 2000
Duration : 41 min 52 s
Bit rate mode : Constant
Bit rate : 192 kb/s
Channel(s) : 2 channels
Channel layout : L R
Sampling rate : 48.0 kHz
Frame rate : 31.250 FPS (1536 SPF)
Bit depth : 16 bits
Compression mode : Lossy
Stream size : 57.5 MiB (10%)
Alignment : Aligned on interleaves
Interleave, duration : 64 ms (1.53 video frames)
Interleave, preload duration : 192 ms
Service kind : Complete Main
-- -

Release was prepared by RG Serials



If your ratio falls below 0.3, you will not be able to download Torrents! More about the rating.

[toptorrent.pw].t4815.torrent
Torrent: Registered [ 2019-08-01 20:28 ] · B3842C1D77AAD4B53589819416155DE76744A2A0

Download .torrent

Download

65 KB

Status: checked
Completed: 0 times
Size: 12.71 GB
Rate: 
(Vote: 1)
Has thanked: 1  Thanks   (List)
terms.php


Last edited by .:Mercury:. on 2019-08-01 20:28; edited 8 times in total

.:Mercury:. ®

Gender: Male

Longevity: 1 year 8 months

Posts: 3566

Карма: 31947 [+]

Наличие запрета:

[Profile] [PM]

Post 24-Dec-2018 09:50 (after 2 months 8 days)

[Quote]

Добавлена 2-я, 3-я, 4-я, 5-я и 6-я серия 

.:Mercury:. ®

Gender: Male

Longevity: 1 year 8 months

Posts: 3566

Карма: 31947 [+]

Наличие запрета:

[Profile] [PM]

Post 17-Feb-2019 06:59 (after 1 month 23 days)

[Quote]

+7-я и 8-я серия 

.:Mercury:. ®

Gender: Male

Longevity: 1 year 8 months

Posts: 3566

Карма: 31947 [+]

Наличие запрета:

[Profile] [PM]

Post 14-Mar-2019 13:45 (after 25 days)

[Quote]

+9-я и 10-я серия 

.:Mercury:. ®

Gender: Male

Longevity: 1 year 8 months

Posts: 3566

Карма: 31947 [+]

Наличие запрета:

[Profile] [PM]

Post 17-Apr-2019 18:53 (after 1 month 3 days)

[Quote]

+11-я, 12-я и 13-я серия 

.:Mercury:. ®

Gender: Male

Longevity: 1 year 8 months

Posts: 3566

Карма: 31947 [+]

Наличие запрета:

[Profile] [PM]

Post 21-Apr-2019 08:26 (after 3 days)

[Quote]

14-я серия 

.:Mercury:. ®

Gender: Male

Longevity: 1 year 8 months

Posts: 3566

Карма: 31947 [+]

Наличие запрета:

[Profile] [PM]

Post 04-May-2019 18:29 (after 13 days)

[Quote]

15-я серия 

.:Mercury:. ®

Gender: Male

Longevity: 1 year 8 months

Posts: 3566

Карма: 31947 [+]

Наличие запрета:

[Profile] [PM]

Post 01-Aug-2019 20:31 (after 2 months 28 days)

[Quote]

Добавлены заключительные серии 
Display posts:    
Reply to topic

Current time is: 15-Oct 14:06

All times are UTC + 5



You cannot post new topics in this forum
You cannot reply to topics in this forum
You cannot edit your posts in this forum
You cannot delete your posts in this forum
You cannot vote in polls in this forum
You cannot attach files in this forum
You can download files in this forum