Полное изучение синтезатора SPIRE [2016, RUS] [wikisound]

Reply to topic
DL-List and Torrent activity
Size:  3.39 GB   |    Registered:  4 months 6 days   |    Completed:  1 time

Seeder not seen: 1 day 11 hours

 
 
 
 
Author Message

Survivor ®

VIP пользователь

Gender: Male

Longevity: 1 year 3 months

Posts: 159

Карма: 46390 [+]

Наличие запрета:

[Profile] [PM]

Post 17-Jan-2019 00:50

[Quote]

Полное изучение синтезатора SPIRE
Год выпуска: 2016
Производитель: wikisound
Сайт производителя: http://wikisound.org/lessons/spire/
Автор: Сергей Live
Продолжительность: 5 часов
Тип раздаваемого материала: Видеоурок
Язык: Русский
SPIRE - это один из синтезаторов, который стремительно завоевал мир электронной музыки и уже известен всем, кто занимается её созданием. При создании синтезатора Spire компания Reveal Sound хотела доказать, что звук программных синтезаторов может быть высококачественным, что им и удалось.
SPIRE - это синтезатор, которым пользуется огромное количество известных музыкантов всех стилей и направлений музыки. Перечислять множество имён нет смысла. Для примера, это такие гиганты музыкальной индустрии, как Armin Van Buuren, Hardwell, Dash Berlin, Dada Life и многие другие.
Всё потому, что синтезатор даёт отличное высококачественное звучание и характер современной EDM-музыки. Всё это помогло синтезатору Spire завоевать мировую известность.
К данному синтезатору уже существует огромное количество очень качественных звуков, которые очень хорошо впишутся в вашу музыку. Останется только придумать мелодию. С помощью этого синтезатора создаются современные хиты EDM!
Что Вам даст курс «Изучение синтезатора SPIRE»
► Ясность и понимание параметров синтезатора. В курсе наглядно показано, как работают и на что влияют все ручки и кнопки.
► В Вашей власти окажется инструмент, который используют очень многие звёзды электронной музыки. Нет ни одного электронного музыканта, кто бы не знал про этот синтезатор.
► Вы сможете легко получать звуки треков, находящихся в верхних списках топов. Причём, сделать их в этом синтезаторе можно очень быстро, благодаря итуитивно понятному интерфейсу.
► Теперь, садясь писать музыку, Вы не будете крутить наугад и гадать, на что влияет определённый параметр.
► Посмотрев данный курс, Вы получите понимание инструмента, с помощью которого создаются хиты. И вы сможете реализовать свой творческий потенциал в максимальной степени. Таким образом, Ваша музыка начнёт выделяться среди общей массы музыкантов.
► Верное и последовательное понимание всех функций синтезатора. Они объяснены подробно и наглядно.
► Вам откроются новые возможности синтеза — это 100% даст новый творческий толчок.
Осцилляторы
01 - Осцилляторы и переключение пресетов
02 - Общие параметры осцилляторов
03 - Зависимые параметры осцилляторов
04 - Унисон
05 - Параметры осцилляторов
Фильтры
06 - Типы фильтров
07 - Маршрутизация фильтров
08 - Отслеживание и связь фильтров
Модуляторы
09 - Параметры ADSR огибающей
10 - SLT и SLL огибащей
11 - Цели и количество модуляции
12 - Особенность 1 огибающей
13 - LFO
14 - Арпеджиатор
15 - Матрица
16 - Шагатель
17 - Макро контроллеры
18 - Особенности диапазонов модуляций
19 - Особенности модуляции LFO
20 - Дрейф, портаменто, глобальное транспонирование
Эффекты
21 - Формирователь
22 - Фейзер
23 - Хорус
24 - Дилэй
25 - Ревербератор
Разное
26 - Трёхполосный эквалайзер и выход
27 - Меню пресетов и настроек
28 - Полифонические режимы
29 - MIDI обучение
Файлы примеров: отсутствуют
Формат видео: MP4
Видео: AVC; 1280х720; 16:9; 25 тыс/сек; 908 Кбит/сек
Аудио: AAC; 44,1 КГц; 254 Кбит/сек; 2 канала
Format : MPEG-4
Format profile : Base Media / Version 2
Codec ID : mp42 (mp42/mp41)
Overall bit rate mode : Variable
Overall bit rate : 1 167 kb/s
Encoded date : UTC 2016-08-18 04:48:34
Tagged date : UTC 2016-08-18 04:48:34
TIM : 00:00:00:00
TSC : 25
TSZ : 1
Video
ID : 1
Format : AVC
Format/Info : Advanced Video Codec
Format profile : Main@L4.1
Format settings : CABAC / 3 Ref Frames
Format settings, CABAC : Yes
Format settings, ReFrames : 3 frames
Codec ID : avc1
Codec ID/Info : Advanced Video Coding
Bit rate : 908 kb/s
Width : 1 280 pixels
Height : 720 pixels
Display aspect ratio : 16:9
Frame rate mode : Constant
Frame rate : 25.000 FPS
Standard : PAL
Color space : YUV
Chroma subsampling : 4:2:0
Bit depth : 8 bits
Scan type : Progressive
Bits/(Pixel*Frame) : 0.039
Stream size : 30.7 MiB (78%)
Encoded date : UTC 2016-08-18 04:48:34
Tagged date : UTC 2016-08-18 04:48:34
Color range : Limited
Color primaries : BT.709
Transfer characteristics : BT.709
Matrix coefficients : BT.709
Codec configuration box : avcC
Audio
ID : 2
Format : AAC
Format/Info : Advanced Audio Codec
Format profile : LC
Codec ID : mp4a-40-2
Bit rate mode : Variable
Bit rate : 254 kb/s
Maximum bit rate : 337 kb/s
Channel(s) : 2 channels
Channel positions : Front: L R
Sampling rate : 44.1 kHz
Frame rate : 43.066 FPS (1024 SPF)
Compression mode : Lossy
Stream size : 8.58 MiB (22%)
Source stream size : 8.58 MiB (22%)
Encoded date : UTC 2016-08-18 04:48:34
Tagged date : UTC 2016-08-18 04:48:34

If your ratio falls below 0.3, you will not be able to download Torrents! More about the rating.

[toptorrent.pw].t5414.torrent
Torrent: Registered [ 2019-01-17 00:50 ] · EC5D3EB86E21F789B154B19930B4B64E0ED36425

Download .torrent

Download

20 KB

Status: checked
Completed: 1 times
Size: 3.39 GB
Rate: 
(Vote: 1)
Has thanked: 1  Thanks   (List)
terms.php

 

Post 17-Jan-2019 16:27 (after 15 hours)

Топик был перенесен из форума Тестовые раздачи в форум Видеоуроки: Музыка и танцы
Survivor
Display posts:    
Reply to topic

Current time is: 23-May 03:44

All times are UTC + 5



You cannot post new topics in this forum
You cannot reply to topics in this forum
You cannot edit your posts in this forum
You cannot delete your posts in this forum
You cannot vote in polls in this forum
You cannot attach files in this forum
You can download files in this forum