Розуэлл, Нью-Мексико / Roswell, New Mexico / Сезон: 1 / Серии: 1-8 из 13 (Тим Эндрю, Джули Плек, Шири Эпплби) [2019, Драма, Фантастика, Мелодрама, Мистика, WEB-DLRip] (MVO : LostFilm)

Ответить на тему
Статистика раздачи
Размер:  3,02 GB   |    Зарегистрирован:  4 дня   |    Скачан:  0 раз

Полного источника не было: 1 день 16 часов

 
 
 
 
Автор Сообщение

.:Mercury:. ®

VIP пользователь

Пол: Мужской

Стаж: 1 год 1 месяц

Сообщений: 2821

Карма: 31947 [+]

Наличие запрета:

[Профиль] [ЛС]

Создавать темы 19-Янв-2019 12:42

[Цитировать]

Розуэлл, Нью-Мексико / Roswell, New Mexico- - -Год выпуска: 2019
Страна: США
Жанр: Драма, Фантастика, Мелодрама, Мистика
Тип: Инопланетяне, По книге, Мистические существа
Продолжительность: 1x ~00:42:00
Перевод: Профессиональный (многоголосый закадровый)
Доп. инфо о переводе: LostFilm--Режиссёр: Тим Эндрю, Джули Плек, Шири Эпплби--В ролях: Лили Коулес, Джанин Мэйсон, Хезер Сайрус Хемменс, Роза Арредондо, Уилльям Грили, Стефани Хилл, Нэйтан Парсонс, Michael Vlamis, Тайлер Блэкберн, Майкл Тревино--Описание: Лиз Ортехо (Джанин Мэйсон) покинула родной Розуэлл после окончания школы и смерти своей сестры, которая погибла при странных обстоятельствах. Будучи дочерью эмигрантов, девушка смогла получить престижную профессию биомедика, но спустя годы ей пришлось вернуться в сонный ковбойский городок, причем не в самом лучшем расположении духа. Впрочем, долго горевать у нее не получилось: на горизонте вдруг объявился бывший бойфренд Кайл (Майкл Тревино), который стал хирургом, и красавчик Макс (Нэйтан Парсонс), в которого она когда-то была влюблена. Макс теперь — уважаемый член сообщества и верный своему призванию полицейский. Между Лиз и Максом стремительно вспыхивает бурный роман, но вскоре девушка узнает, что ее возлюбленный — настоящий инопланетянин, долгое время скрывавший правду о себе, как и его сестра. Тем временем неподалеку от Розуэлла зреет правительственный заговор, угрожающий всем пришельцам. Политика нетерпимости по отношению к «эмигрантам» с другой планеты может разрушить не только отношения Лиз и Макса, но и их жизни. Смогут ли они сохранить свою любовь в мире, где никто их не понимает, особенно когда Лиз узнает шокирующую правду о смерти своей сестры?.."--Рейтинг IMDb: 5--Качество видео: WEB-DLRip
Формат: AVI
Видео: XviD, 720x400 (16:9), 1114 kbps (0.161 b/px), 23.98 fps
Аудио: MPEG-1 Audio layer 3, 193 kbps (VBR), 48.0 KHz, 2 ch
«Розуэлл, Нью-Мексико» — это ребут сериала «Город пришельцев», который выходил на канале The WB в 1999-2002 годах и был, в свою очередь, основан на серии романов Мелинды Метц. Автор идеи перезагрузки, Карина Адли Маккензи («Флэш», «Первородные»), в работе над сценарием опиралась больше на печатный оригинал, а возглавить съемки пилотной серии она пригласила Джули Плек, работавшую над многими сериалами канала The CW. Как лучшие и самые популярные проекты данной телесети, «Розуэлл, Нью-Мексико» делает ставку на любовную историю между человеком и представителем другого вида, в данном случае — инопланетянином. Их отношения будут окутаны множеством тайн и загадок, компьютерные спецэффекты покажут зрителям способности пришельцев во всей красе, а в актерском составе собрались исключительно приятные молодые люди и девушки. В общем, The CW остается верным себе и приглашает своих поклонников окунуться в мир, где любовь всей твоей жизни может оказаться гостем с другом планеты, и этот факт способен повлечь за собой не только приятные сюрпризы, но и серьезные проблемы.
General
Complete name : E:\Roswell.New.Mexico.S01E01.rus.LostFilm.TV.avi
Format : AVI
Format/Info : Audio Video Interleave
File size : 400 MiB
Duration : 42mn 35s
Overall bit rate mode : Variable
Overall bit rate : 1 313 Kbps
Writing application : Nandub v1.0rc2
Writing library : Nandub build 1853/release
Video
ID : 0
Format : MPEG-4 Visual
Format profile : Advanced Simple@L5
Format settings, BVOP : No
Format settings, QPel : No
Format settings, GMC : No warppoints
Format settings, Matrix : Default (MPEG)
Codec ID : XVID
Codec ID/Hint : XviD
Duration : 42mn 35s
Bit rate : 1 114 Kbps
Width : 720 pixels
Height : 400 pixels
Display aspect ratio : 16:9
Frame rate : 23.976 fps
Color space : YUV
Chroma subsampling : 4:2:0
Bit depth : 8 bits
Scan type : Progressive
Compression mode : Lossy
Bits/(Pixel*Frame) : 0.161
Stream size : 339 MiB (85%)
Writing library : XviD 1.2.1 (UTC 2008-12-04)
Audio
ID : 1
Format : MPEG Audio
Format version : Version 1
Format profile : Layer 3
Mode : Joint stereo
Codec ID : 55
Codec ID/Hint : MP3
Duration : 42mn 35s
Bit rate mode : Variable
Bit rate : 192 Kbps
Channel(s) : 2 channels
Sampling rate : 48.0 KHz
Compression mode : Lossy
Stream size : 56.9 MiB (14%)
Alignment : Aligned on interleaves
Interleave, duration : 24 ms (0.58 video frame)
Interleave, preload duration : 440 ms
Writing library : LAME3.97b
Encoding settings : -m j -V 4 -q 3 -lowpass 18.6 --abr 192

Релиз подготовлен RG Serials

Если ваш рейтинг упадет ниже 0,3, вы не сможете скачивать торренты! Подробнее о рейтинге.

[toptorrent.pw].t5426.torrent
Торрент: Зарегистрирован [ 2019-03-15 11:11 ] · AA47CE3A707FE95D1A82ECF049F9AD94BA483E51

Скачать .torrent

Скачать

16 KB

Статус: T временная
Скачан: 0 раз
Размер: 3,02 GB
Оценка: 
(Голосов: 1)
Поблагодарили: 1  Спасибо   (список)
terms.php


Последний раз редактировалось: .:Mercury:. (2019-03-15 11:11), всего редактировалось 7 раз(а)

.:Mercury:. ®

VIP пользователь

Пол: Мужской

Стаж: 1 год 1 месяц

Сообщений: 2821

Карма: 31947 [+]

Наличие запрета:

[Профиль] [ЛС]

Создавать темы 25-Янв-2019 01:55 (спустя 5 дней)

[Цитировать]

+2-я серия

.:Mercury:. ®

VIP пользователь

Пол: Мужской

Стаж: 1 год 1 месяц

Сообщений: 2821

Карма: 31947 [+]

Наличие запрета:

[Профиль] [ЛС]

Создавать темы 01-Фев-2019 19:03 (спустя 7 дней)

[Цитировать]

+3-я серия

.:Mercury:. ®

VIP пользователь

Пол: Мужской

Стаж: 1 год 1 месяц

Сообщений: 2821

Карма: 31947 [+]

Наличие запрета:

[Профиль] [ЛС]

Создавать темы 08-Фев-2019 05:13 (спустя 6 дней)

[Цитировать]

+4-я серия

.:Mercury:. ®

VIP пользователь

Пол: Мужской

Стаж: 1 год 1 месяц

Сообщений: 2821

Карма: 31947 [+]

Наличие запрета:

[Профиль] [ЛС]

Создавать темы 15-Фев-2019 10:32 (спустя 7 дней)

[Цитировать]

+5-я серия

.:Mercury:. ®

VIP пользователь

Пол: Мужской

Стаж: 1 год 1 месяц

Сообщений: 2821

Карма: 31947 [+]

Наличие запрета:

[Профиль] [ЛС]

Создавать темы 01-Мар-2019 07:56 (спустя 13 дней)

[Цитировать]

+6-я серия

.:Mercury:. ®

VIP пользователь

Пол: Мужской

Стаж: 1 год 1 месяц

Сообщений: 2821

Карма: 31947 [+]

Наличие запрета:

[Профиль] [ЛС]

Создавать темы 08-Мар-2019 09:52 (спустя 7 дней)

[Цитировать]

+7-я серия

.:Mercury:. ®

VIP пользователь

Пол: Мужской

Стаж: 1 год 1 месяц

Сообщений: 2821

Карма: 31947 [+]

Наличие запрета:

[Профиль] [ЛС]

Создавать темы 15-Мар-2019 11:12 (спустя 7 дней)

[Цитировать]

+8-я серия
Показать сообщения:    
Ответить на тему

Текущее время: 19-Мар 20:20

Часовой пояс: UTC + 5



Вы не можете начинать темы
Вы не можете отвечать на сообщения
Вы не можете редактировать свои сообщения
Вы не можете удалять свои сообщения
Вы не можете голосовать в опросах
Вы не можете прикреплять файлы к сообщениям
Вы можете скачивать файлы