[FL-StudioPro] SERUM Sound Design Master [2017, RUS]

Reply to topic

DL-List and Torrent activity
Size:  5.25 GB   |    Registered:  6 months 28 days   |    Completed:  1 time
Seeders:  1  [  0 KB/s  ]   Show peers in full details
 
 
 
 
Author Message

Survivor ®

VIP пользователь

Gender: Male

Longevity: 1 year 6 months

Posts: 162

Карма: 46390 [+]

Наличие запрета:

[Profile] [PM]

Post 20-Jan-2019 21:43

[Quote]

SERUM Sound Design Master -●•●• Революционное обучение синтезу для EDM & Bass музыки •●•●-
Год выпуска: 2017
Производитель: FL-StudioPro
Сайт производителя: http://serum.fl-studiopro.ru/
Автор: Freaxment
Продолжительность: 10 часов
Тип раздаваемого материала: Видеоурок
Язык: Русский
Serum – это достижение совместных усилий опытнейших саунд-дизайнеров и программистов, воплощённое в реальность с помощью современных цифровых технологий.
Плагин, комбинирующий 7 видов синтеза и обладающий функцией семплера. Этот монстр сделал действительно гигантский скачок в будущее.
Serum - это единственный VST синтезатор, который сам по себе является машиной для полноценного саунд дизайна и не нуждается в пост-обработке.
Что будет в курсе:
Реализация звука из головы; понимание того, как накрутить абсолютно любые звуки, начиная от нежных Lead и заканчивая самыми жесткими Bass звуками.
Не только сухая теория о функциях ручек, но и применение полученных знаний на практике синтеза различных звуков.
Подробный разбор всех составляющих синтезатора и различные способы комбинации из них в процессе саунд-дизайна.
Применение накрученных тобой звуков в контексте треков.
Создание собственных волноформ, с помощью встроенного в Serum редактора волновых таблиц и понимание физики звука при генерации волн.
Обучение использованию встроенных в плагин эффектов (FX).
Изучение работы матрицы модуляций и использование ее в целях саунд-дизайна, а также изучение влияния на тембр самых различных модуляторов: LFO во всех режимах, Envelope, Macro и тд.
Подробный разбор абсолютно всех видов синтеза (таблично-волновой, субтрактивный, аддитивный, гранулярный, FM, AM, RM и тд.).
Использование синтезатора в качестве семплера.
Обучение полезным функциям вкладки Global, цель которых – расширить возможности синтеза (ДЛЯ МАСТЕРОВ САУНД-ДИЗАЙНА).
Разбор самых сложных и запутанных пресетов от топовых продюсеров, с целью дать тебе понимание того, как они были созданы.
1. БАЗОВАЯ ТЕОРИЯ
1.1 Первый взгляд, пресеты, меню
1.1.1 Гайд по интерфейсу. Как установить и ориентироваться в Serum
1.1.2 Как управляться с пресетами в Serum
1.1.3 Все тонкости меню пресетов
1.1.4 Подробности меню синтезатора
1.2 Осцилляторы, как единицы, формирующие тембр
1.2.1 Sub-осциллятор
1.2.2 Главные осцилляторы A & B
Управление осцилляторами A и B
Руководство по настройке Pitch
Warping и какую магию он может делать
1.2.3 Noise-осциллятор
1.3 Эффекты
1.3.1 Как устроена панель эффектов
1.3.2 Все о фильтрах
EQ
Filter
Flanger & Phaser
1.3.3 Работа с амплитудой в подробностях
Compressor
Distortion
1.3.4 Unison-эффекты и их влияние на саунд-дизайн
Chorus
Hyper и Dimension
1.3.5 Погружение в пространственные эффекты
Delay
Reverb
1.4 Модуляторы и их важность в синтезе
1.4.1 Как работать с макроконтроллерами и mod wheel
1.4.2 Огибающие Envelopes
1.4.3 Полное руководство по LFO
Как функционирует LFO
Как редактировать LFO
1.4.4 Функции Velo и Note
1.4.5 Модуляционная матрица и все ее секреты-2. ТЕОРИЯ PRO
2.1 Настройки Voicing
2.2 Загрузка семплов в осцилляторы A и B
2.3 Вкладка Global
2.3.1 Вся АНТИ-логика секции Chaos
2.3.2 Что таят в себе настройки unison
2.3.3 Preferences и что там лучше выставить
2.3.4 Что НЕ стоит трогать в Serum!
2.4 Wavetable Editor
2.4.1 Как рисовать собственные волноформы
2.4.2 Меню редактора волновых таблиц
2.4.3 Полное погружение в аддитивный синтез Serum-3. ПРАКТИКА
3.1 Так ли важен тембр и сколько звуков можно получить из пилообразной волны?
3.2 Как гармоники влияют на характер вашего звука. Органика и металл
3.3 Как разные режимы Warp воздействуют на тембр
3.4 Придание звуку движения посредством автоматизации параметров
3.5 Только практическое применение фильтров
3.6 Принцип синтеза Dubstep басов
3.7 Detune, когда рандомизация фазы отключена или самая ЖЕСТЬ в синтезе
3.8 Частотная, амплитудная и кольцевая модуляции и какие звуки от этого получаются
3.9 FM простой волны от простой
3.10 FM простой волны от сложной
3.11 FM сложной волны от простой
3.12 FM сложной волны от сложной
3.13 Вся польза гребенчатых фильтров
3.14 Простая накрутка металлических басов с помощью Comb и flg фильтров
3.15 Snail басы с помощью фильтра гибрида фленжера и фейзера
3.16 Лёгкий способ получить интересную trap-пищалку
3.17 Использование двух осцилляторов
3.18 Интересный метод синтеза - двойная частотная модуляция (Double FM)
3.19 Riddim-басы и использование эквалайзера при нехватке фильтров
3.20 Формантные фильтры-4. БОНУСЫ-5. ЗАКЛЮЧЕНИЕ-
Format : MPEG-4
Format profile : Base Media / Version 2
Codec ID : mp42 (isom/mp42)
Overall bit rate mode : Variable
Overall bit rate : 1 318 kb/s
Movie name : 1.1
Encoded date : UTC 2017-03-15 22:49:13
Tagged date : UTC 2017-03-15 22:49:13
Video
ID : 1
Format : AVC
Format/Info : Advanced Video Codec
Format profile : Baseline@L3.2
Format settings : 3 Ref Frames
Format settings, CABAC : No
Format settings, ReFrames : 3 frames
Format settings, GOP : M=1, N=75
Codec ID : avc1
Codec ID/Info : Advanced Video Coding
Duration : 2 min 46 s
Bit rate : 998 kb/s
Width : 1 364 pixels
Height : 768 pixels
Display aspect ratio : 16:9
Frame rate mode : Constant
Frame rate : 25.000 FPS
Standard : PAL
Color space : YUV
Chroma subsampling : 4:2:0
Bit depth : 8 bits
Scan type : Progressive
Bits/(Pixel*Frame) : 0.038
Stream size : 19.8 MiB (76%)
Encoded date : UTC 2017-03-15 22:49:13
Tagged date : UTC 2017-03-15 22:49:13
Color range : Limited
Codec configuration box : avcC
Audio
ID : 2
Format : AAC
Format/Info : Advanced Audio Codec
Format profile : LC
Codec ID : mp4a-40-2
Bit rate mode : Variable
Bit rate : 318 kb/s
Maximum bit rate : 407 kb/s
Channel(s) : 2 channels
Channel positions : Front: L R
Sampling rate : 44.1 kHz
Frame rate : 43.066 FPS (1024 SPF)
Compression mode : Lossy
Stream size : 6.29 MiB (24%)
Encoded date : UTC 2017-03-15 22:49:13
Tagged date : UTC 2017-03-15 22:49:13
▁▂▂▁ Формат видео: MP4
Файлы примеров: отсутствуют
Видео: AVC; 1364х768; 16:9; 25 тыс/сек; 998 Кбит/сек
Аудио: AAC; 44,1 КГц; 318 Кбит/сек; 2 канала
SCREENSHOTS


If your ratio falls below 0.3, you will not be able to download Torrents! More about the rating.

[toptorrent.pw].t5433.torrent
Torrent: Registered [ 2019-01-20 21:43 ] · A2AF06D9D9AA34A03EED18AD555FB5102A173E75

Download .torrent

Download

52 KB

Status: checked
Completed: 1 times
Size: 5.25 GB
Rate: 
(Vote: 2)
Has thanked: 3  Thanks   (List)
terms.php
Display posts:    
Reply to topic

Current time is: 18-Aug 01:50

All times are UTC + 5



You cannot post new topics in this forum
You cannot reply to topics in this forum
You cannot edit your posts in this forum
You cannot delete your posts in this forum
You cannot vote in polls in this forum
You cannot attach files in this forum
You can download files in this forum