Гадалка / Сезон: 1 / Серии: 1-16 из 16 (Илья Казанков) [2018, Детектив, драма, мистика, HDTVRip]

Reply to topic
DL-List and Torrent activity
Size:  10.79 GB   |    Registered:  2 months 18 days   |    Completed:  0 times

Seeder not seen: 2 months 13 days

 
 
 
 
Author Message

.:Mercury:. ®

Gender: Male

Longevity: 1 year 3 months

Posts: 3205

Карма: 31947 [+]

Наличие запрета:

[Profile] [PM]

Post 12-Feb-2019 03:27

[Quote]

Гадалка- -Год выпуска: 2018
Страна: Россия, Продюсерский Центр "Горад" "ВВП Альянс"
Жанр: Детектив, драма, мистика
Продолжительность: 2 х ~ 00:48:00--Режиссёр: Илья Казанков--В ролях: Михаил Пореченков, Екатерина Олькина, Яна Крайнова, Юлия Ауг, Дмитрий Репин, Михаил Парыгин, Владимир Капустин, Василий Бочкарёв, Борис Щербаков, Анна Тараторкина, Николай Иванов (II), Александр Асташёнок, Сергей Губанов, Александр Левин (II), Константин Воробьёв, Лидия Мельникова, Лилия Лаврова, Евгений Рубаха, Виктория Рунцова, Анастасия Чуева, Игорь Ключников--Описание: В центре сюжета — столичный майор Алексей Потапов и девушка из маленького провинциального городка Люся Некрасова — на первый взгляд, странный тандем, занимающийся расследованием сложных преступлений. Люся — необычная девушка: она видит людей, места, детали преступлений. Описав со стопроцентной точностью место убийства собственной сестры, Некрасова становится незаменимым сотрудником полиции, с чем категорически не согласен ее начальник — Потапов, привыкший верить только неопровержимым фактам, а не каким-то там видениям и предчувствиям. Но вскоре он вынужден признать: ненормальная «гадалка» все чаще оказывается права.--Качество видео: HDTVRip
Формат: AVI-Видео: XviD, 720x400, 25.000 FPS, 1 760 kb/s
Аудио: AC-3, 48.0 kHz, 31.250 FPS, 16 bits, 192 kb/s, 2 channels
General
Complete name : /home/mercury/Общедоступные/Сериалы/Gadalka.HDTVRip.GeneralFilm/01.Gadalka.HDTVRip.GeneralFilm.avi
Format : AVI
Format/Info : Audio Video Interleave
File size : 649 MiB
Duration : 46 min 12 s
Overall bit rate : 1 964 kb/s
Video
ID : 0
Format : MPEG-4 Visual
Format profile : Advanced Simple@L5
Format settings : BVOP1 / Custom Matrix
Format settings, BVOP : 1
Format settings, QPel : No
Format settings, GMC : No warppoints
Format settings, Matrix : Custom
Codec ID : XVID
Codec ID/Hint : XviD
Duration : 46 min 12 s
Bit rate : 1 760 kb/s
Width : 720 pixels
Height : 400 pixels
Display aspect ratio : 16:9
Frame rate : 25.000 FPS
Color space : YUV
Chroma subsampling : 4:2:0
Bit depth : 8 bits
Scan type : Progressive
Compression mode : Lossy
Bits/(Pixel*Frame) : 0.244
Stream size : 582 MiB (90%)
Writing library : XviD 1.2.1 (UTC 2008-12-04)
Audio
ID : 1
Format : AC-3
Format/Info : Audio Coding 3
Commercial name : Dolby Digital
Codec ID : 2000
Duration : 46 min 12 s
Bit rate mode : Constant
Bit rate : 192 kb/s
Channel(s) : 2 channels
Channel layout : L R
Sampling rate : 48.0 kHz
Frame rate : 31.250 FPS (1536 SPF)
Bit depth : 16 bits
Compression mode : Lossy
Stream size : 63.5 MiB (10%)
Alignment : Aligned on interleaves
Interleave, duration : 32 ms (0.80 video frame)
Service kind : Complete Main

Release was prepared by RG Serials

If your ratio falls below 0.3, you will not be able to download Torrents! More about the rating.

[toptorrent.pw].t5564.torrent
Torrent: Registered [ 2019-03-08 00:49 ] · 976E4930426EF362E81C99CA68BA651643754245

Download .torrent

Download

28 KB

Status: checked
Completed: 0 times
Size: 10.79 GB
Rate: 
(Vote: 1)
Has thanked: 1  Thanks   (List)
terms.php


Last edited by .:Mercury:. on 2019-03-08 00:49; edited 11 times in total

.:Mercury:. ®

Gender: Male

Longevity: 1 year 3 months

Posts: 3205

Карма: 31947 [+]

Наличие запрета:

[Profile] [PM]

Post 13-Feb-2019 13:12 (after 1 day 9 hours)

[Quote]

+3-я серия

.:Mercury:. ®

Gender: Male

Longevity: 1 year 3 months

Posts: 3205

Карма: 31947 [+]

Наличие запрета:

[Profile] [PM]

Post 14-Feb-2019 21:24 (after 1 day 8 hours)

[Quote]

+4-я серия

.:Mercury:. ®

Gender: Male

Longevity: 1 year 3 months

Posts: 3205

Карма: 31947 [+]

Наличие запрета:

[Profile] [PM]

Post 19-Feb-2019 06:12 (after 4 days)

[Quote]

+5-я и 6-я серия

.:Mercury:. ®

Gender: Male

Longevity: 1 year 3 months

Posts: 3205

Карма: 31947 [+]

Наличие запрета:

[Profile] [PM]

Post 20-Feb-2019 17:43 (after 1 day 11 hours)

[Quote]

+7-я серия

.:Mercury:. ®

Gender: Male

Longevity: 1 year 3 months

Posts: 3205

Карма: 31947 [+]

Наличие запрета:

[Profile] [PM]

Post 22-Feb-2019 15:39 (after 1 day 21 hour)

[Quote]

8-я и 9-я серия

.:Mercury:. ®

Gender: Male

Longevity: 1 year 3 months

Posts: 3205

Карма: 31947 [+]

Наличие запрета:

[Profile] [PM]

Post 26-Feb-2019 11:27 (after 3 days)

[Quote]

+10-я серия

.:Mercury:. ®

Gender: Male

Longevity: 1 year 3 months

Posts: 3205

Карма: 31947 [+]

Наличие запрета:

[Profile] [PM]

Post 27-Feb-2019 06:51 (after 19 hours)

[Quote]

+11-я серия

.:Mercury:. ®

Gender: Male

Longevity: 1 year 3 months

Posts: 3205

Карма: 31947 [+]

Наличие запрета:

[Profile] [PM]

Post 28-Feb-2019 12:27 (after 1 day 5 hours)

[Quote]

+12-я серия

.:Mercury:. ®

Gender: Male

Longevity: 1 year 3 months

Posts: 3205

Карма: 31947 [+]

Наличие запрета:

[Profile] [PM]

Post 01-Mar-2019 10:15 (after 21 hour)

[Quote]

+13-я серия

.:Mercury:. ®

Gender: Male

Longevity: 1 year 3 months

Posts: 3205

Карма: 31947 [+]

Наличие запрета:

[Profile] [PM]

Post 06-Mar-2019 16:28 (after 5 days)

[Quote]

+14-я и 15-я серия

.:Mercury:. ®

Gender: Male

Longevity: 1 year 3 months

Posts: 3205

Карма: 31947 [+]

Наличие запрета:

[Profile] [PM]

Post 08-Mar-2019 00:51 (after 1 day 8 hours)

[Quote]

+ Заключительная серия
Display posts:    
Reply to topic

Current time is: 26-May 08:46

All times are UTC + 5



You cannot post new topics in this forum
You cannot reply to topics in this forum
You cannot edit your posts in this forum
You cannot delete your posts in this forum
You cannot vote in polls in this forum
You cannot attach files in this forum
You can download files in this forum