Жил-был Дэдпул / Once Upon A Deadpool (Дэвид Литч) [2018, Комедия, боевик, фантастика, HDRip] DUB [iTunes]

Reply to topic
DL-List and Torrent activity
Size:  1.46 GB   |    Registered:  3 months 11 days   |    Completed:  0 times
Seeders:  1  [  0 KB/s  ]   Show peers in full details
 
 
 
 
Author Message

_Deimos_ ®

VIP пользователь

Gender: Male

Longevity: 1 year 3 months

Posts: 323

Карма: 33000 [+]

Location: Топторрент

Наличие запрета:

[Profile] [PM]

Post 14-Feb-2019 22:58

[Quote]


--Год выпуска: 2018
Страна: США
Жанр: Комедия, боевик, фантастика
Продолжительность: 01:57:41
Перевод: Дублированный [iTunes]--Режиссёр: Дэвид Литч--В ролях: Райан Рейнольдс, Джош Бролин, Морена Баккарин, Брианна Хилдебранд, ТиДжей Миллер, Джулиан Деннисон, Зази Битц, Фред Сэвэдж, Джек Кеси, Каран Сони-- : Смягчённая версия фильма «Дэдпул 2» о наемнике-мутанте и его бесшабашной команде, которая встаёт на защиту одного проблемного подростка.-- Качество: HDRip
Формат видео: AVI
Видео: Xvid, 720x304, 23.976 fps, 1382 kb/s
Аудио: AC3, 48.0 kHz, 6 channels, 384 kb/s--

Рейтинг фильма --
General
Complete name : G:\Kino\DedPUliSHka.DeTssKiy.2O18.D.HDRip.1.46Gb.avi
Format : AVI
Format/Info : Audio Video Interleave
File size : 1.46 GiB
Duration : 1 h 57 min
Overall bit rate : 1 776 kb/s
Writing application : VirtualDubMod 1.5.10.2 (build 2540/release)
Writing library : VirtualDubMod build 2540/release
Video
ID : 0
Format : MPEG-4 Visual
Format profile : Advanced Simple@L5
Format settings, BVOP : 2
Format settings, QPel : No
Format settings, GMC : No warppoints
Format settings, Matrix : Custom
Codec ID : XVID
Codec ID/Hint : XviD
Duration : 1 h 57 min
Bit rate : 1 382 kb/s
Width : 720 pixels
Height : 304 pixels
Display aspect ratio : 2.35:1
Frame rate : 23.976 (24000/1001) FPS
Color space : YUV
Chroma subsampling : 4:2:0
Bit depth : 8 bits
Scan type : Progressive
Compression mode : Lossy
Bits/(Pixel*Frame) : 0.263
Stream size : 1.14 GiB (78%)
Writing library : XviD 73
Audio
ID : 1
Format : AC-3
Format/Info : Audio Coding 3
Format settings, Endianness : Big
Codec ID : 2000
Duration : 1 h 57 min
Bit rate mode : Constant
Bit rate : 384 kb/s
Channel(s) : 6 channels
Channel positions : Front: L C R, Side: L R, LFE
Sampling rate : 48.0 kHz
Frame rate : 31.250 FPS (1536 SPF)
Bit depth : 16 bits
Compression mode : Lossy
Stream size : 323 MiB (22%)
Alignment : Split accross interleaves
Interleave, duration : 42 ms (1.00 video frame)
Interleave, preload duration : 500 ms
Service kind : Complete Main

Release was prepared by RG Cinema

If your ratio falls below 0.3, you will not be able to download Torrents! More about the rating.

[toptorrent.pw].t5586.torrent
Torrent: Registered [ 2019-02-14 22:58 ] · 5AB4003C5253F4D8DC53AEDDFBACD286A6313AFE

Download .torrent

Download

15 KB

Status: checked
Completed: 0 times
Size: 1.46 GB
Rate: 
(Vote: 2)
Has thanked: 2  Thanks   (List)
terms.php
Display posts:    
Reply to topic

Current time is: 26-May 08:24

All times are UTC + 5



You cannot post new topics in this forum
You cannot reply to topics in this forum
You cannot edit your posts in this forum
You cannot delete your posts in this forum
You cannot vote in polls in this forum
You cannot attach files in this forum
You can download files in this forum