Ральф против интернета / Ralph Breaks the Internet (Фил Джонстон, Рич Мур) [2018 г., мультфильм, фэнтези, комедия, приключения, семейный, WEB-DLRip] iTunes

Reply to topic
DL-List and Torrent activity
Size:  1.37 GB   |    Registered:  3 months 11 days   |    Completed:  1 time
Seeders:  2  [  0 KB/s  ]   Show peers in full details
 
 
 
 
Author Message

NuRKHoNoFF ®

Gender: Male

Longevity: 1 year 2 months

Posts: 130

Карма: 177 [+]

Location: UzOnline

Наличие запрета:

[Profile] [PM]

Post 15-Feb-2019 05:18

[Quote]

Ральф против интернета / Ralph Breaks the Internet -Год выпуска: 2018
Страна: США
Жанр: мультфильм, фэнтези, комедия, приключения, семейный
Продолжительность: 01:54:23
Перевод: Дублированный | [iTunes]-Режиссер: Фил Джонстон, Рич Мур-В ролях: Джон Си Райли, Сара Силверман, Галь Гадот, Тараджи П. Хенсон, Джек МакБрайер, Джейн Линч, Алан Тьюдик, Альфред Молина, Эд О Нил, Шон Джамброун-Описание: И вот снова они: нолики и единички, крошечные пылинки в нетленной вселенной. Кибергонщица и виртуальный Громила - неразлучные друзья, перед которыми, волею игрового божества, открывается параллельная цифровая реальность: безграничное пространство Интернета, наделённое своими правилами, сложностями, заманчивыми и запретными территориями. И конечно - соблазнами. И вот они снова на пороге головокружительных приключений, милых курьёзов или мнимых, но оттого не менее потрясающих и жестких опасностей. Эти неподражаемые и выразительные герои оставят яркие отпечатки веселья, оттенки грусти и шлейфы трогательных огоньков, сверкающих искрами запредельного драйва на захватывающих и непредсказуемых сетевых разворотах. Потрясный Глюк!- -Качество: WEB-DLRip
Формат: AVI
Видео: XviD, 1337 Кбит/с, 720x304
Аудио: AC3, 6 ch, 384 Кбит/с [Русский]-
General
Complete name : C:\Фильмы 2017\RaLFeeK.2.2O18.D.WEB-DLRip.14OOMB.ALLTOR.ME.avi
Format : AVI
Format/Info : Audio Video Interleave
File size : 1.37 GiB
Duration : 1 h 53 min
Overall bit rate : 1 731 kb/s
Writing application : VirtualDubMod 1.5.10.2 (build 2540/release)
Writing library : VirtualDubMod build 2540/release
Video
ID : 0
Format : MPEG-4 Visual
Format profile : Advanced Simple@L5
Format settings : BVOP2
Format settings, BVOP : 2
Format settings, QPel : No
Format settings, GMC : No warppoints
Format settings, Matrix : Default (MPEG)
Codec ID : XVID
Codec ID/Hint : XviD
Duration : 1 h 53 min
Bit rate : 1 338 kb/s
Width : 720 pixels
Height : 304 pixels
Display aspect ratio : 2.35:1
Frame rate : 23.976 (24000/1001) FPS
Color space : YUV
Chroma subsampling : 4:2:0
Bit depth : 8 bits
Scan type : Progressive
Compression mode : Lossy
Bits/(Pixel*Frame) : 0.255
Stream size : 1.06 GiB (77%)
Writing library : XviD 1.2.1 (UTC 2008-12-04)
Audio
ID : 1
Format : AC-3
Format/Info : Audio Coding 3
Codec ID : 2000
Duration : 1 h 53 min
Bit rate mode : Constant
Bit rate : 384 kb/s
Channel(s) : 6 channels
Channel positions : Front: L C R, Side: L R, LFE
Sampling rate : 48.0 kHz
Frame rate : 31.250 FPS (1536 SPF)
Bit depth : 16 bits
Compression mode : Lossy
Stream size : 310 MiB (22%)
Alignment : Split accross interleaves
Interleave, duration : 42 ms (1.00 video frame)
Interleave, preload duratio : 500 ms
Service kind : Complete Main

If your ratio falls below 0.3, you will not be able to download Torrents! More about the rating.

[toptorrent.pw].t5591.torrent
Torrent: Registered [ 2019-02-15 05:18 ] · B3DC4057E186D2DD4A926747CCA7A6ADF1170B51

Download .torrent

Download

2 KB

Status: checked
Completed: 1 times
Size: 1.37 GB
Rate: 
(Vote: 3)
Has thanked: 5  Thanks   (List)
terms.php

NuRKHoNoFF ®

Gender: Male

Longevity: 1 year 2 months

Posts: 130

Карма: 177 [+]

Location: UzOnline

Наличие запрета:

[Profile] [PM]

Post 15-Feb-2019 05:22 (after 4 minutes)

[Quote]

Раздача будет завтра! Всем извиниться заранее! 
Display posts:    
Reply to topic

Current time is: 26-May 07:54

All times are UTC + 5



You cannot post new topics in this forum
You cannot reply to topics in this forum
You cannot edit your posts in this forum
You cannot delete your posts in this forum
You cannot vote in polls in this forum
You cannot attach files in this forum
You can download files in this forum