Дис / Dis (Адриан Корона / Adrian Corona) [2017 г., Ужасы, WEBRip-AVC, P]

Reply to topic
DL-List and Torrent activity
Size:  1.16 GB   |    Registered:  5 months 3 days   |    Completed:  0 times

Seeder not seen: 3 months 22 days

 
 
 
 
Author Message

NuRKHoNoFF ®

Gender: Male

Longevity: 1 year 3 months

Posts: 130

Карма: 177 [+]

Location: UzOnline

Наличие запрета:

[Profile] [PM]

Post 17-Feb-2019 04:10

[Quote]

Дис / Dis- Год выпуска: 2017
Страна: США
Жанр: Ужасы
Продолжительность: 01:01:11
Перевод: Любительский (двухголосый закадровый) [HiWay Grope]-Режиссер: Адриан Корона-В ролях: Билл Оберст мл., Лори Джо Хендрикс, Питер Гонсалес Фалкон, Мануэль Домингес, Анна Войцехова-Описание: Солдат с тёмным уголовным прошлым дезертирует из армии и скрывается в древнем лесу, где его находит и заманивает в ловушку Дис - древний демон в обличье соблазнительной девушки.- -Качество: WEBRip-AVC (Реклама)
Формат: MKV
Видео: MPEG-4 AVC/x.264, 720x288, 23.976 fps, ~2344 kbps, 0.472 bit/pixel
Аудио: AC3, 48 kHz, 6 ch, 384 Kbps
-
General
Unique ID : 293499984380051400355106703663858069854 (0xDCCE0A75C432F8CCB6CD22AB292A315E)
Complete name : C:\Фильмы 2017\DIS.2017.WEBRip-AVC.HiWayGrope.mkv
Format : Matroska
Format version : Version 4 / Version 2
File size : 1.16 GiB
Duration : 1 h 0 min
Overall bit rate : 2 729 kb/s
Encoded date : UTC 2019-02-08 05:58:49
Writing application : mkvmerge v30.0.0 ('Interstellar') 64-bit
Writing library : libebml v1.3.6 + libmatroska v1.4.9
Video
ID : 1
Format : AVC
Format/Info : Advanced Video Codec
Format profile : Main@L4.1
Format settings : CABAC / 4 Ref Frames
Format settings, CABAC : Yes
Format settings, ReFrames : 4 frames
Codec ID : V_MPEG4/ISO/AVC
Duration : 1 h 0 min
Bit rate : 2 344 kb/s
Width : 720 pixels
Height : 288 pixels
Display aspect ratio : 2.500
Frame rate mode : Constant
Frame rate : 23.976 (24000/1001) FPS
Standard : NTSC
Color space : YUV
Chroma subsampling : 4:2:0
Bit depth : 8 bits
Scan type : Progressive
Bits/(Pixel*Frame) : 0.472
Stream size : 1 016 MiB (86%)
Language : English
Default : Yes
Forced : No
Color range : Limited
Color primaries : BT.601 NTSC
Transfer characteristics : BT.601
Matrix coefficients : BT.601
Audio
ID : 2
Format : AC-3
Format/Info : Audio Coding 3
Codec ID : A_AC3
Duration : 1 h 0 min
Bit rate mode : Constant
Bit rate : 384 kb/s
Channel(s) : 6 channels
Channel positions : Front: L C R, Side: L R, LFE
Sampling rate : 48.0 kHz
Frame rate : 31.250 FPS (1536 SPF)
Bit depth : 16 bits
Compression mode : Lossy
Stream size : 166 MiB (14%)
Language : Russian
Service kind : Complete Main
Default : Yes
Forced : No

If your ratio falls below 0.3, you will not be able to download Torrents! More about the rating.

[toptorrent.pw].t5607.torrent
Torrent: Registered [ 2019-02-17 04:10 ] · 5AE7355B4B2FA7A1753667F1754B62CD42C24028

Download .torrent

Download

12 KB

Status: checked
Completed: 0 times
Size: 1.16 GB
Rate: 
(Vote: 2)
Has thanked: 2  Thanks   (List)
terms.php
Display posts:    
Reply to topic

Current time is: 20-Jul 05:46

All times are UTC + 5



You cannot post new topics in this forum
You cannot reply to topics in this forum
You cannot edit your posts in this forum
You cannot delete your posts in this forum
You cannot vote in polls in this forum
You cannot attach files in this forum
You can download files in this forum