Ничто не случается дважды / Сезон 1 / Серии 1-16 из 16 (Оксана Байрак) [2019 г. Украина, Детектив, мелодрама, триллер, WEB-DLRip]

Reply to topic
DL-List and Torrent activity
Size:  10.86 GB   |    Registered:  2 months 26 days   |    Completed:  0 times
Seeders:  2  [  0 KB/s  ]   Show peers in full details
 
 
 
 
Author Message

фазилов ®

Gender: Male

Longevity: 1 year 3 months

Posts: 411

Карма: 4583 [+]

Location: Таш-море

Наличие запрета:

[Profile] [PM]

Post 18-Feb-2019 19:26

[Quote]

(1-16 СЕРИИ ИЗ 16) Год выпуска: 2019
Страна: Украина . FILM.UA , OKSANA BAYRAK studio
Жанр: детектив, мелодрама, триллер
Продолжительность: 1х~00:54

Режиссер: Оксана Байрак В РОЛЯХ: Максим Дрозд, Антон Батырев, Екатерина Тышкевич, Надежда Грановская, Натали Старынкевич, Екатерина Семёнова, Пётр Рыков, Анастасия Бунина, Валентин Томусяк, Алла Масленникова, Ирина Ефремова, Регимантас Адомайтис, Дмитрий Мазуров, Глеб Калюжный, Владимир Гладкий, Татьяна Жевнова, Полина Носыхина, Феруза Рузиева, Ислам Зафесов, Константин Самоуков, Дмитрий Мальцев. ОПИСАНИЕ: Эта история начинается 20 лет назад.
Небольшой военный посёлок на самой границе только на первый взгляд кажется тихим и мирным. На деле же это маленькая страна, в которой царят свои порядки и правила. В центре событий сериала оказались совершенно обычные люди, которые сталкиваются с самыми обычными и распространенными проблемами. Молодежь впервые узнает, что такое любовь. Ради первых чувств многие молодые люди готовы на любые поступки.Главные герои этой ленты оказались перед непростой проблемой. Они принадлежат к разным слоям населения. Между ними зияет пропасть, и кажется, что эта пропасть просто непреодолима. Между влюбленными стоят власть и деньги. Родители одного из них очень состоятельные и влиятельные люди. Для них деньги и социальное положение имеют огромное значение. Родители другого же обычные труженики, которые довольствуются тем, что дает им жизнь. Молодые влюбленные люди больше всего на свете хотят быть вместе. Они не хотят думать о разнице социальных положений своих семей. Но родственники иначе смотрят на эту ситуацию.
Качество: WEB-DLRip
Формат: AVI

Видео кодек: XviD
Аудио кодек: AC3

Видео: XviD, 720x400, ~ 1600 Кбит/с, Fps-25,0
Аудио: AC-3, 192 kbps, 2 channels-Front: L R, 48 kHz

Общее
Полное имя : E:\Российские сериалы-2\ 01. Ничто не случается дважды.(2019).WEBDLRip.Files-x.avi
Формат : AVI
Формат/Информация : Audio Video Interleave
Размер файла : 698 Мбайт
Продолжительность : 54 м. 9 с.
Общий поток : 1802 Кбит/сек
Программа кодирования : VirtualDubMod 1.5.10.3| (build 2550/release)
Библиотека кодирования : VirtualDubMod build 2550/release
Видео
Идентификатор : 0
Формат : MPEG-4 Visual
Профиль формата : Advanced Simple@L5
Параметр BVOP формата : 1
Параметр QPel формата : Нет
Параметр GMC формата : Без точки перехода
Параметр матрицы формата : Выборочная
Идентификатор кодека : XVID
Идентификатор кодека/Подсказка : XviD
Продолжительность : 54 м. 9 с.
Битрейт : 1600 Кбит/сек
Ширина : 720 пикселей
Высота : 400 пикселей
Соотношение сторон : 16:9
Частота кадров : 25,000 кадров/сек
Цветовое пространство : YUV
Субдискретизация насыщенности : 4:2:0
Битовая глубина : 8 бит
Тип развёртки : Прогрессивная
Метод сжатия : С потерями
Бит/(Пиксели*Кадры) : 0.222
Размер потока : 620 Мбайт (89%)
Библиотека кодирования : XviD 73
Аудио
Идентификатор : 1
Формат : AC-3
Формат/Информация : Audio Coding 3
Расширение режима : CM (complete main)
Параметр Endianness формата : Big
Идентификатор кодека : 2000
Продолжительность : 54 м. 9 с.
Вид битрейта : Постоянный
Битрейт : 192 Кбит/сек
Каналы : 2 канала
Расположение каналов : Front: L R
Частота : 48,0 КГц
Частота кадров : 31,250 кадров/сек (1536 spf)
Битовая глубина : 16 бит
Метод сжатия : С потерями
Размер потока : 74,4 Мбайт (11%)
Выравнивание : Разделение по промежуткам
Продолжительность промежутка : 40 мс. (1,00 видеокадр)
Время предзагрузки промежутка : 500 мс.
Релиз подготовлен группой Мои релизы

If your ratio falls below 0.3, you will not be able to download Torrents! More about the rating.

[toptorrent.pw].t5617.torrent
Torrent: Registered [ 2019-02-24 13:04 ] · E6FAEC7DA32B1D32C4A49C43E2B400C786A6D7C2

Download .torrent

Download

57 KB

Status: checked
Completed: 0 times
Size: 10.86 GB
Rate: 
(Vote: 2)
Has thanked: 2  Thanks   (List)
terms.php


Last edited by фазилов on 2019-02-24 13:04; edited 4 times in total

фазилов ®

Gender: Male

Longevity: 1 year 3 months

Posts: 411

Карма: 4583 [+]

Location: Таш-море

Наличие запрета:

[Profile] [PM]

Post 21-Feb-2019 09:24 (after 2 days 13 hours)

[Quote]

ДОБАВЛЕНЫ 9-10 СЕРИИ.
ПЕРЕЗАКАЧАЙТЕ ТОРРЕНТ-ФАЙЛ.
aa

фазилов ®

Gender: Male

Longevity: 1 year 3 months

Posts: 411

Карма: 4583 [+]

Location: Таш-море

Наличие запрета:

[Profile] [PM]

Post 22-Feb-2019 09:03 (after 23 hours)

[Quote]

ДОБАВЛЕНЫ 11-12 СЕРИИ.
ПЕРЕЗАКАЧАЙТЕ ТОРРЕНТ-ФАЙЛ.
aa

фазилов ®

Gender: Male

Longevity: 1 year 3 months

Posts: 411

Карма: 4583 [+]

Location: Таш-море

Наличие запрета:

[Profile] [PM]

Post 22-Feb-2019 16:53 (after 7 hours)

[Quote]

ДОБАВЛЕНЫ 13-14 СЕРИИ.
ПЕРЕЗАКАЧАЙТЕ ТОРРЕНТ-ФАЙЛ.
aa

фазилов ®

Gender: Male

Longevity: 1 year 3 months

Posts: 411

Карма: 4583 [+]

Location: Таш-море

Наличие запрета:

[Profile] [PM]

Post 24-Feb-2019 13:06 (after 1 day 20 hours)

[Quote]

ДОБАВЛЕНЫ 15-16 (заключительная)СЕРИИ.
ПЕРЕЗАКАЧАЙТЕ ТОРРЕНТ-ФАЙЛ.
aa
Display posts:    
Reply to topic

Current time is: 23-May 04:05

All times are UTC + 5



You cannot post new topics in this forum
You cannot reply to topics in this forum
You cannot edit your posts in this forum
You cannot delete your posts in this forum
You cannot vote in polls in this forum
You cannot attach files in this forum
You can download files in this forum