Восставший из ада: Коллекция / Hellraiser: Collection (Клайв Баркер, Тони Рэндел, Энтони Хикокс, Кевин Ягер, Скотт Дерриксон, Рик Бота, Виктор Гарсия, Гэри Дж. Танниклифф) [1987-2018, Ужасы, триллер, детектив BDRip-AVC]

Reply to topic
DL-List and Torrent activity
Size:  21.6 GB   |    Registered:  3 months 7 days   |    Completed:  0 times
Seeders:  1  [  0 KB/s  ]   Show peers in full details
 
 
 
 
Author Message

_Deimos_ ®

VIP пользователь

Gender: Male

Longevity: 1 year 3 months

Posts: 323

Карма: 33000 [+]

Location: Топторрент

Наличие запрета:

[Profile] [PM]

Post 19-Feb-2019 04:53

[Quote]

Восставший из ада / Hellraiser- -- Год выпуска: 1987
Страна: Великобритания
Жанр: Ужасы
Продолжительность: 01:33:23
Перевод: Профессиональный многоголосый--Режиссер: Клайв Баркер--В ролях: Эндрю Робинсон, Клэр Хиггинс, Эшли Лоуренс, Шон Чэпман, Оливер Смит, Роберт Хайнс, Энтони Аллен, Леон Дэвис, Майкл Кэссиди, Фрэнк Бэйкер-- Расставив вокруг себя зажженные свечи, Френк открывает купленную им на восточном базаре старинную шкатулку. Легенда гласит, что живущие в ней демоны могут доставить владельцу неописуемые наслаждения. Но Френк не мог и предположить, что эта шкатулка ключ к воротам из ада...-- Качество: BDRip-AVC
Формат : MKV
Видео кодек: H.264, 1024x554, 23.976 fps, 2385 kb/s
Аудио кодек #1: AAC, 48.0 kHz, 6 channels, 192 kb/s - DVO [П.Гланц и И.Королева]
Аудио кодек #2: AAC, 48.0 kHz, 2 channels, 192 kb/s - DVO [DDV] [rus]
Аудио кодек #3: AAC, 48.0 kHz, 6 channels, 192 kb/s - MVO [R5] [rus]
Аудио кодек #4: AAC, 48.0 kHz, 6 channels, 192 kb/s - AVO [Гаврилов] [rus]
Аудио кодек #5: AAC, 48.0 kHz, 6 channels, 192 kb/s - Original [eng]
Субтитры: Русские и Английские--

Рейтинг фильма --
General
Unique ID : 222430909453395494555241025283676157470 (0xA756A28949E2B82696467866A0F3B61E)
Complete name : F:\Kino\Ужасы\Восставший из ада - Антология\Восставший из ада (1987).mkv
Format : Matroska
Format version : Version 4 / Version 2
File size : 2.18 GiB
Duration : 1 h 33 min
Overall bit rate : 3 348 kb/s
Encoded date : UTC 2015-08-21 04:33:52
Writing application : mkvmerge v8.2.0 ('World of Adventure') 64bit
Writing library : libebml v1.3.1 + libmatroska v1.4.2 / Lavf55.12.0
Cover : Yes
Attachments : Cover_1.jpg
Video
ID : 1
Format : AVC
Format/Info : Advanced Video Codec
Format profile : High@L4.1
Format settings, CABAC : Yes
Format settings, RefFrames : 12 frames
Codec ID : V_MPEG4/ISO/AVC
Duration : 1 h 33 min
Bit rate : 2 385 kb/s
Width : 1 024 pixels
Height : 554 pixels
Display aspect ratio : 1.85:1
Frame rate mode : Constant
Frame rate : 23.976 (24000/1001) FPS
Color space : YUV
Chroma subsampling : 4:2:0
Bit depth : 8 bits
Scan type : Progressive
Bits/(Pixel*Frame) : 0.175
Stream size : 1.56 GiB (71%)
Title : MPEG-4, 1024x554, 23.976 fps ~2385 kbps
Writing library : x264 core 142 r2479 dd79a61
Encoding settings : cabac=1 / ref=12 / deblock=1:-2:-1 / analyse=0x3:0x133 / me=umh / subme=11 / psy=1 / psy_rd=1.00:0.14 / mixed_ref=1 / me_range=48 / chroma_me=1 / trellis=2 / 8x8dct=1 / cqm=0 / deadzone=21,11 / fast_pskip=0 / chroma_qp_offset=-3 / threads=6 / lookahead_threads=1 / sliced_threads=0 / nr=0 / decimate=1 / interlaced=0 / bluray_compat=0 / constrained_intra=0 / bframes=15 / b_pyramid=2 / b_adapt=2 / b_bias=0 / direct=3 / weightb=1 / open_gop=0 / weightp=2 / keyint=240 / keyint_min=24 / scenecut=40 / intra_refresh=0 / rc_lookahead=60 / rc=2pass / mbtree=0 / bitrate=2385 / ratetol=1.0 / qcomp=0.60 / qpmin=0 / qpmax=69 / qpstep=4 / cplxblur=20.0 / qblur=0.5 / vbv_maxrate=62500 / vbv_bufsize=78125 / nal_hrd=none / filler=0 / ip_ratio=1.40 / pb_ratio=1.30 / aq=1:1.00
Language : English
Default : Yes
Forced : No
Color range : Limited
Color primaries : BT.709
Transfer characteristics : BT.709
Matrix coefficients : BT.709
Audio #1
ID : 2
Format : AAC
Format/Info : Advanced Audio Codec
Format profile : HE-AAC / LC
Codec ID : A_AAC
Duration : 1 h 33 min
Bit rate : 192 kb/s
Channel(s) : 6 channels
Channel positions : Front: L C R, Side: L R, LFE
Sampling rate : 48.0 kHz / 24.0 kHz
Frame rate : 23.438 FPS (1024 SPF)
Compression mode : Lossy
Delay relative to video : -105 ms
Stream size : 128 MiB (6%)
Title : HE-AAC 6 ch, 24|48 kHz ~192 kbps - DVO [П.Гланц и И.Королева]
Language : Russian
Default : No
Forced : No
Audio #2
ID : 3
Format : AAC
Format/Info : Advanced Audio Codec
Format profile : HE-AACv2 / HE-AAC / LC
Codec ID : A_AAC
Duration : 1 h 33 min
Bit rate : 192 kb/s
Channel(s) : 2 channels / 6 channels / 6 channels
Channel positions : Front: L R / Front: L C R, Side: L R, LFE / Front: L C R, Side: L R, LFE
Sampling rate : 48.0 kHz / 48.0 kHz / 24.0 kHz
Frame rate : 23.438 FPS (1024 SPF)
Compression mode : Lossy
Delay relative to video : -105 ms
Stream size : 128 MiB (6%)
Title : HE-AAC 6 ch, 24|48 kHz ~192 kbps - DVO [DDV]
Language : Russian
Default : No
Forced : No
Audio #3
ID : 4
Format : AAC
Format/Info : Advanced Audio Codec
Format profile : HE-AAC / LC
Codec ID : A_AAC
Duration : 1 h 33 min
Bit rate : 192 kb/s
Channel(s) : 6 channels
Channel positions : Front: L C R, Side: L R, LFE
Sampling rate : 48.0 kHz / 24.0 kHz
Frame rate : 23.438 FPS (1024 SPF)
Compression mode : Lossy
Delay relative to video : -105 ms
Stream size : 128 MiB (6%)
Title : HE-AAC 6 ch, 24|48 kHz ~192 kbps - MVO [R5]
Language : Russian
Default : Yes
Forced : No
Audio #4
ID : 5
Format : AAC
Format/Info : Advanced Audio Codec
Format profile : HE-AAC / LC
Codec ID : A_AAC
Duration : 1 h 33 min
Bit rate : 192 kb/s
Channel(s) : 6 channels
Channel positions : Front: L C R, Side: L R, LFE
Sampling rate : 48.0 kHz / 24.0 kHz
Frame rate : 23.438 FPS (1024 SPF)
Compression mode : Lossy
Delay relative to video : -105 ms
Stream size : 128 MiB (6%)
Title : HE-AAC 6 ch, 24|48 kHz ~192 kbps - AVO [Гаврилов]
Language : Russian
Default : No
Forced : No
Audio #5
ID : 6
Format : AAC
Format/Info : Advanced Audio Codec
Format profile : HE-AAC / LC
Codec ID : A_AAC
Duration : 1 h 33 min
Bit rate : 192 kb/s
Channel(s) : 6 channels
Channel positions : Front: L C R, Side: L R, LFE
Sampling rate : 48.0 kHz / 24.0 kHz
Frame rate : 23.438 FPS (1024 SPF)
Compression mode : Lossy
Delay relative to video : -105 ms
Stream size : 128 MiB (6%)
Title : HE-AAC 6 ch, 24|48 kHz ~192 kbps - Original
Language : English
Default : No
Forced : No
Text #1
ID : 7
Format : ASS
Codec ID : S_TEXT/ASS
Codec ID/Info : Advanced Sub Station Alpha
Duration : 1 h 28 min
Bit rate : 61 b/s
Count of elements : 635
Compression mode : Lossless
Stream size : 39.7 KiB (0%)
Language : Russian
Default : No
Forced : No
Text #2
ID : 8
Format : ASS
Codec ID : S_TEXT/ASS
Codec ID/Info : Advanced Sub Station Alpha
Duration : 1 h 29 min
Bit rate : 58 b/s
Count of elements : 838
Compression mode : Lossless
Stream size : 38.7 KiB (0%)
Language : English
Default : No
Forced : No
Menu
00:00:00.000 : :Chapter 1
00:05:31.812 : :Chapter 2
00:12:10.919 : :Chapter 3
00:16:23.880 : :Chapter 4
00:22:44.969 : :Chapter 5
00:24:54.390 : :Chapter 6
00:28:51.335 : :Chapter 7
00:33:28.195 : :Chapter 8
00:40:56.226 : :Chapter 9
00:46:36.733 : :Chapter 10
00:50:12.198 : :Chapter 11
00:53:15.840 : :Chapter 12
00:59:38.096 : :Chapter 13
01:05:29.406 : :Chapter 14
01:10:42.135 : :Chapter 15
01:14:12.470 : :Chapter 16
01:16:57.218 : :Chapter 17
01:20:29.597 : :Chapter 18
01:23:04.001 : :Chapter 19
01:27:21.049 : :Chapter 20
Восставший из ада 2 / Hellraiser II- -- Год выпуска: 1988
Страна: Великобритания, США
Жанр: Ужасы
Продолжительность: 01:39:04
Перевод: Профессиональный многоголосый--Режиссер: Тони Рэндел--В ролях: Эшли Лоуренс, Имоджен Бурман, Кеннет Крэнэм, Уильям Хоуп, Даг Брэдли, Клэр Хиггинс, Дебора Джоэль, Энгус МакИннес, Оливер Смит, Шон Чэпман-- В наш мир возвращается мачеха Кристины Джулия, сгинувшая в геенне огненной в финале первой части фильма. Для восстановления своего физического облика ей приходится использовать те же малоприглядные средства, что в свое время и Фрэнку.
В это же время Кристина, содержащаяся в психиатрической лечебнице, решает спасти своего томящегося в потусторонней неволе отца, для чего ей снова необходимо проникнуть за ту не всегда видимую и не всегда прочную грань, которая отделяет мир живых от мира не очень живых...-- Качество: BDRip-AVC
Формат: MKV
Видео кодек: H.264, 1024x556, 23.976, fps, 2200 kb/s
Аудио кодек #1: AAC, 48.0 kHz, 6 channels, 192 kb/s - DVO [П.Гланц и И.Королева]
Аудио кодек #2: AAC, 48.0 kHz, 6 channels, 192 kb/s - DVO [DDV] [rus]
Аудио кодек #3: AAC, 48.0 kHz, 6 channels, 192 kb/s - MVO [West Video] [rus]
Аудио кодек #4: AAC, 48.0 kHz, 6 channels, 192 kb/s - AVO [Гаврилов] [rus]
Аудио кодек #5: AAC, 48.0 kHz, 6 channels, 192 kb/s - Original [eng]
Субтитры: Русские и Английские--

Рейтинг фильма --
General
Unique ID : 197078311719363268961460906367459048219 (0x9443E6F61E2B710A931227654400BB1B)
Complete name : F:\Kino\Ужасы\Восставший из ада - Антология\Восставший из ада 2 (1988).mkv
Format : Matroska
Format version : Version 4 / Version 2
File size : 2.19 GiB
Duration : 1 h 39 min
Overall bit rate : 3 162 kb/s
Encoded date : UTC 2015-08-21 15:08:57
Writing application : mkvmerge v8.2.0 ('World of Adventure') 64bit
Writing library : libebml v1.3.1 + libmatroska v1.4.2 / Lavf55.12.0
Cover : Yes
Attachments : Cover_2.jpg
Video
ID : 1
Format : AVC
Format/Info : Advanced Video Codec
Format profile : High@L4.1
Format settings, CABAC : Yes
Format settings, RefFrames : 12 frames
Codec ID : V_MPEG4/ISO/AVC
Duration : 1 h 39 min
Bit rate : 2 200 kb/s
Width : 1 024 pixels
Height : 556 pixels
Display aspect ratio : 1.85:1
Frame rate mode : Constant
Frame rate : 23.976 (24000/1001) FPS
Color space : YUV
Chroma subsampling : 4:2:0
Bit depth : 8 bits
Scan type : Progressive
Bits/(Pixel*Frame) : 0.161
Stream size : 1.52 GiB (70%)
Title : MPEG-4, 1024x556, 23.976 fps ~2200 kbps
Writing library : x264 core 142 r2479 dd79a61
Encoding settings : cabac=1 / ref=12 / deblock=1:-3:-3 / analyse=0x3:0x133 / me=umh / subme=11 / psy=1 / psy_rd=1.00:0.14 / mixed_ref=1 / me_range=48 / chroma_me=1 / trellis=2 / 8x8dct=1 / cqm=0 / deadzone=21,11 / fast_pskip=0 / chroma_qp_offset=-3 / threads=6 / lookahead_threads=1 / sliced_threads=0 / nr=0 / decimate=1 / interlaced=0 / bluray_compat=0 / constrained_intra=0 / bframes=15 / b_pyramid=2 / b_adapt=2 / b_bias=0 / direct=3 / weightb=1 / open_gop=0 / weightp=2 / keyint=240 / keyint_min=24 / scenecut=40 / intra_refresh=0 / rc_lookahead=60 / rc=2pass / mbtree=0 / bitrate=2200 / ratetol=1.0 / qcomp=0.60 / qpmin=0 / qpmax=69 / qpstep=4 / cplxblur=20.0 / qblur=0.5 / vbv_maxrate=62500 / vbv_bufsize=78125 / nal_hrd=none / filler=0 / ip_ratio=1.40 / pb_ratio=1.30 / aq=1:1.00
Language : English
Default : Yes
Forced : No
Color range : Limited
Color primaries : BT.709
Transfer characteristics : BT.709
Matrix coefficients : BT.709
Audio #1
ID : 2
Format : AAC
Format/Info : Advanced Audio Codec
Format profile : HE-AAC / LC
Codec ID : A_AAC
Duration : 1 h 39 min
Bit rate : 192 kb/s
Channel(s) : 6 channels
Channel positions : Front: L C R, Side: L R, LFE
Sampling rate : 48.0 kHz / 24.0 kHz
Frame rate : 23.438 FPS (1024 SPF)
Compression mode : Lossy
Delay relative to video : -105 ms
Stream size : 136 MiB (6%)
Title : HE-AAC 6 ch, 24|48 kHz ~192 kbps - DVO [П.Гланц и И.Королева]
Language : Russian
Default : Yes
Forced : No
Audio #2
ID : 3
Format : AAC
Format/Info : Advanced Audio Codec
Format profile : HE-AAC / LC
Codec ID : A_AAC
Duration : 1 h 39 min
Bit rate : 192 kb/s
Channel(s) : 6 channels
Channel positions : Front: L C R, Side: L R, LFE
Sampling rate : 48.0 kHz / 24.0 kHz
Frame rate : 23.438 FPS (1024 SPF)
Compression mode : Lossy
Delay relative to video : -105 ms
Stream size : 136 MiB (6%)
Title : HE-AAC 6 ch, 24|48 kHz ~192 kbps - DVO [DDV]
Language : Russian
Default : No
Forced : No
Audio #3
ID : 4
Format : AAC
Format/Info : Advanced Audio Codec
Format profile : HE-AAC / LC
Codec ID : A_AAC
Duration : 1 h 39 min
Bit rate : 192 kb/s
Channel(s) : 6 channels
Channel positions : Front: L C R, Side: L R, LFE
Sampling rate : 48.0 kHz / 24.0 kHz
Frame rate : 23.438 FPS (1024 SPF)
Compression mode : Lossy
Delay relative to video : -105 ms
Stream size : 136 MiB (6%)
Title : HE-AAC 6 ch, 24|48 kHz ~192 kbps - MVO [West Video]
Language : Russian
Default : No
Forced : No
Audio #4
ID : 5
Format : AAC
Format/Info : Advanced Audio Codec
Format profile : HE-AAC / LC
Codec ID : A_AAC
Duration : 1 h 39 min
Bit rate : 192 kb/s
Channel(s) : 6 channels
Channel positions : Front: L C R, Side: L R, LFE
Sampling rate : 48.0 kHz / 24.0 kHz
Frame rate : 23.438 FPS (1024 SPF)
Compression mode : Lossy
Delay relative to video : -105 ms
Stream size : 136 MiB (6%)
Title : HE-AAC 6 ch, 24|48 kHz ~192 kbps - AVO [Гаврилов]
Language : Russian
Default : No
Forced : No
Audio #5
ID : 6
Format : AAC
Format/Info : Advanced Audio Codec
Format profile : HE-AAC / LC
Codec ID : A_AAC
Duration : 1 h 39 min
Bit rate : 192 kb/s
Channel(s) : 6 channels
Channel positions : Front: L C R, Side: L R, LFE
Sampling rate : 48.0 kHz / 24.0 kHz
Frame rate : 23.438 FPS (1024 SPF)
Compression mode : Lossy
Delay relative to video : -105 ms
Stream size : 136 MiB (6%)
Title : HE-AAC 6 ch, 24|48 kHz ~192 kbps - Original
Language : English
Default : No
Forced : No
Text #1
ID : 7
Format : UTF-8
Codec ID : S_TEXT/UTF8
Codec ID/Info : UTF-8 Plain Text
Duration : 1 h 35 min
Bit rate : 31 b/s
Count of elements : 565
Stream size : 21.9 KiB (0%)
Language : Russian
Default : Yes
Forced : No
Text #2
ID : 8
Format : UTF-8
Codec ID : S_TEXT/UTF8
Codec ID/Info : UTF-8 Plain Text
Duration : 1 h 35 min
Bit rate : 18 b/s
Count of elements : 440
Stream size : 12.9 KiB (0%)
Language : English
Default : No
Forced : No
Menu
00:00:00.000 : :Chapter 1
00:03:31.400 : :Chapter 2
00:13:42.886 : :Chapter 3
00:24:04.340 : :Chapter 4
00:34:14.992 : :Chapter 5
00:45:09.520 : :Chapter 6
00:54:38.339 : :Chapter 7
01:05:21.815 : :Chapter 8
01:16:02.789 : :Chapter 9
01:24:20.160 : :Chapter 10
01:36:10.203 : :Chapter 11
Восставший из ада 3: Ад на Земле / Hellraiser III: Hell on Earth- -- Год выпуска: 1992
Страна: США, Канада
Жанр: Ужасы
Продолжительность: 01:33:07
Перевод: Профессиональный многоголосый--Режиссер: Энтони Хикокс--В ролях: Кевин Бернхардт, Лоуренс Морторфф, Терри Фаррелл, Кен Карпентер, Шэрон Хилл, Пола Маршалл, Роберт С. Тревилер, Кристофер Фредерик, Лоуренс Каппин, Шэрон Персивал-- Недремлющее Зло вновь вырывается из своего потустороннего плена и начинает настоящую бойню. И, как это частенько водится, на всей планете есть только один человек, который в состоянии противостоять темной адской воле этого исчадия — милая и очаровательная тележурналистка Джоуи...-- Качество: BDRip-AVC
Формат: MKV
Видео кодек: H.264, 1024x576, 23.976 fps, 2587 kb/s
Аудио кодек #1: AAC, 48.0 kHz, 6 channels, 256 kb/s - MVO [R5] [rus]
Аудио кодек #2: AAC, 48.0 kHz, 2 channels, 128 kb/s - DVO [П.Гланц и И.Королева]
Аудио кодек #3: AAC, 48.0 kHz, 6 channels, 256 kb/s - AVO [Гаврилов] [rus]
Аудио кодек #4: AAC, 48.0 kHz, 2 channels, 128 kb/s - Original [eng]
Субтитры: Русские и Английские--

Рейтинг фильма --
General
Unique ID : 232330582230636826968594302546422796850 (0xAEC93E168B33BCC48D61A3CB97041232)
Complete name : F:\Kino\Ужасы\Восставший из ада - Антология\Восставший из ада 3 - Ад на Земле (1992).mkv
Format : Matroska
Format version : Version 4 / Version 2
File size : 2.18 GiB
Duration : 1 h 33 min
Overall bit rate : 3 355 kb/s
Encoded date : UTC 2015-09-14 11:23:58
Writing application : mkvmerge v8.2.0 ('World of Adventure') 64bit
Writing library : libebml v1.3.1 + libmatroska v1.4.2 / Lavf55.12.0
Cover : Yes
Attachments : Cover_3.jpg
Video
ID : 1
Format : AVC
Format/Info : Advanced Video Codec
Format profile : High@L4.1
Format settings, CABAC : Yes
Format settings, RefFrames : 12 frames
Codec ID : V_MPEG4/ISO/AVC
Duration : 1 h 33 min
Bit rate : 2 587 kb/s
Width : 1 024 pixels
Height : 576 pixels
Display aspect ratio : 16:9
Frame rate mode : Constant
Frame rate : 23.976 (24000/1001) FPS
Color space : YUV
Chroma subsampling : 4:2:0
Bit depth : 8 bits
Scan type : Progressive
Bits/(Pixel*Frame) : 0.183
Stream size : 1.68 GiB (77%)
Title : MPEG-4, 1024x576, 23.976 fps ~2587 kbps
Writing library : x264 core 142 r2479 dd79a61
Encoding settings : cabac=1 / ref=12 / deblock=1:-2:-2 / analyse=0x3:0x133 / me=umh / subme=11 / psy=1 / psy_rd=1.00:0.16 / mixed_ref=1 / me_range=48 / chroma_me=1 / trellis=2 / 8x8dct=1 / cqm=0 / deadzone=21,11 / fast_pskip=0 / chroma_qp_offset=-3 / threads=6 / lookahead_threads=1 / sliced_threads=0 / nr=0 / decimate=1 / interlaced=0 / bluray_compat=0 / constrained_intra=0 / bframes=13 / b_pyramid=2 / b_adapt=2 / b_bias=0 / direct=3 / weightb=1 / open_gop=0 / weightp=2 / keyint=240 / keyint_min=24 / scenecut=40 / intra_refresh=0 / rc_lookahead=60 / rc=2pass / mbtree=0 / bitrate=2587 / ratetol=1.0 / qcomp=0.60 / qpmin=0 / qpmax=69 / qpstep=4 / cplxblur=20.0 / qblur=0.5 / vbv_maxrate=62500 / vbv_bufsize=78125 / nal_hrd=none / filler=0 / ip_ratio=1.40 / pb_ratio=1.30 / aq=1:1.00
Language : English
Default : Yes
Forced : No
Color range : Limited
Color primaries : BT.709
Transfer characteristics : BT.709
Matrix coefficients : BT.709
Audio #1
ID : 2
Format : AAC
Format/Info : Advanced Audio Codec
Format profile : HE-AAC / LC
Codec ID : A_AAC
Duration : 1 h 33 min
Bit rate : 256 kb/s
Channel(s) : 6 channels
Channel positions : Front: L C R, Side: L R, LFE
Sampling rate : 48.0 kHz / 24.0 kHz
Frame rate : 23.438 FPS (1024 SPF)
Compression mode : Lossy
Delay relative to video : -105 ms
Stream size : 171 MiB (8%)
Title : HE-AAC 6 ch, 24|48 kHz ~256 kbps - MVO [R5]
Language : Russian
Default : Yes
Forced : No
Audio #2
ID : 3
Format : AAC
Format/Info : Advanced Audio Codec
Format profile : LC
Codec ID : A_AAC
Duration : 1 h 33 min
Bit rate : 128 kb/s
Channel(s) : 2 channels
Channel positions : Front: L R
Sampling rate : 48.0 kHz
Frame rate : 46.875 FPS (1024 SPF)
Compression mode : Lossy
Delay relative to video : -21 ms
Stream size : 85.5 MiB (4%)
Title : AAC 2 ch, 48 kHz ~128 kbps - DVO [П.Гланц и И.Королева]
Language : Russian
Default : No
Forced : No
Audio #3
ID : 4
Format : AAC
Format/Info : Advanced Audio Codec
Format profile : HE-AAC / LC
Codec ID : A_AAC
Duration : 1 h 33 min
Bit rate : 256 kb/s
Channel(s) : 6 channels
Channel positions : Front: L C R, Side: L R, LFE
Sampling rate : 48.0 kHz / 24.0 kHz
Frame rate : 23.438 FPS (1024 SPF)
Compression mode : Lossy
Delay relative to video : -105 ms
Stream size : 171 MiB (8%)
Title : HE-AAC 6 ch, 24|48 kHz ~256 kbps - AVO [Гаврилов]
Language : Russian
Default : No
Forced : No
Audio #4
ID : 5
Format : AAC
Format/Info : Advanced Audio Codec
Format profile : LC
Codec ID : A_AAC
Duration : 1 h 33 min
Bit rate : 128 kb/s
Channel(s) : 2 channels
Channel positions : Front: L R
Sampling rate : 48.0 kHz
Frame rate : 46.875 FPS (1024 SPF)
Compression mode : Lossy
Delay relative to video : -21 ms
Stream size : 85.2 MiB (4%)
Title : AAC 2 ch, 48 kHz ~128 kbps - Original
Language : English
Default : No
Forced : No
Text #1
ID : 6
Format : ASS
Codec ID : S_TEXT/ASS
Codec ID/Info : Advanced Sub Station Alpha
Duration : 1 h 26 min
Bit rate : 79 b/s
Count of elements : 683
Compression mode : Lossless
Stream size : 50.0 KiB (0%)
Language : Russian
Default : No
Forced : No
Text #2
ID : 7
Format : ASS
Codec ID : S_TEXT/ASS
Codec ID/Info : Advanced Sub Station Alpha
Duration : 1 h 29 min
Bit rate : 67 b/s
Count of elements : 859
Compression mode : Lossless
Stream size : 44.5 KiB (0%)
Language : English
Default : No
Forced : No
Menu
00:00:00.000 : :Chapter 1
00:09:26.296 : :Chapter 2
00:20:01.722 : :Chapter 3
00:28:15.174 : :Chapter 4
00:40:06.760 : :Chapter 5
00:49:01.419 : :Chapter 6
01:00:45.581 : :Chapter 7
01:10:40.884 : :Chapter 8
01:20:20.296 : :Chapter 9
01:28:30.369 : :Chapter 10
Восставший из ада 4: Кровное родство / Hellraiser: Bloodline- -- Год выпуска: 1996
Страна: США
Жанр: Ужасы
Продолжительность: 01:24:45
Перевод: Профессиональный многоголосый--Режиссер: Кевин Ягер, Алан Смити--В ролях: Брюс Рэмсей, Валентина Варгас, Даг Брэдли, Шарлотта Чаттон, Адам Скотт, Ким Майерс, Мики Коттрелл, Луи Тюренн, Кортленд Мид, Луис Мустилльо-- Жуткие события происходят в 2127-ом году на космической станции Минос, Доктор Мерчант, одержимый какими-то странными, безумными идеями, захватил станцию, чтобы провести в жизнь свои таинственные эксперименты, Доктора «повязали», и он рассказал, как же он дошел до жизни такой, И выяснилось, что причина безумия доктора — в магическом кубике, изготовленном мастером игрушек Ле Маршаном еще несколько столетий назад...-- Качество: BDRip-AVC
Формат: MKV
Видео кодек: H.264, 1024x576, 23.976 fps, 2950 kb/s
Аудио кодек #1: AAC, 48.0 kHz, 6 channels, 256 kb/s - MVO [West Video] [rus]
Аудио кодек #2: AAC, 48.0 kHz, 6 channels, 256 kb/s - AVO [Гаврилов] [rus]
Аудио кодек #3: AAC, 48.0 kHz, 2 channels, 224 kb/s - Original [eng]
Субтитры: Русские и Английские--

Рейтинг фильма --
General
Unique ID : 240433083607270806353636973323285058604 (0xB4E1BA3FAC13951AB60177783C72542C)
Complete name : F:\Kino\Ужасы\Восставший из ада - Антология\Восставший из ада 4 - Кровное родство (1996).mkv
Format : Matroska
Format version : Version 4 / Version 2
File size : 2.18 GiB
Duration : 1 h 24 min
Overall bit rate : 3 685 kb/s
Encoded date : UTC 2015-09-14 06:47:39
Writing application : mkvmerge v8.2.0 ('World of Adventure') 64bit
Writing library : libebml v1.3.1 + libmatroska v1.4.2 / Lavf55.12.0
Cover : Yes
Attachments : Cover_4.jpg
Video
ID : 1
Format : AVC
Format/Info : Advanced Video Codec
Format profile : High@L4.1
Format settings, CABAC : Yes
Format settings, RefFrames : 13 frames
Codec ID : V_MPEG4/ISO/AVC
Duration : 1 h 24 min
Bit rate : 2 950 kb/s
Width : 1 024 pixels
Height : 576 pixels
Display aspect ratio : 16:9
Frame rate mode : Constant
Frame rate : 23.976 (24000/1001) FPS
Color space : YUV
Chroma subsampling : 4:2:0
Bit depth : 8 bits
Scan type : Progressive
Bits/(Pixel*Frame) : 0.209
Stream size : 1.74 GiB (80%)
Title : MPEG-4, 1024x576, 23.976 fps ~2950 kbps
Writing library : x264 core 142 r2479 dd79a61
Encoding settings : cabac=1 / ref=13 / deblock=1:-3:-3 / analyse=0x3:0x133 / me=umh / subme=11 / psy=1 / psy_rd=1.00:0.12 / mixed_ref=1 / me_range=48 / chroma_me=1 / trellis=2 / 8x8dct=1 / cqm=0 / deadzone=21,11 / fast_pskip=0 / chroma_qp_offset=-3 / threads=6 / lookahead_threads=1 / sliced_threads=0 / nr=0 / decimate=1 / interlaced=0 / bluray_compat=0 / constrained_intra=0 / bframes=13 / b_pyramid=2 / b_adapt=2 / b_bias=0 / direct=3 / weightb=1 / open_gop=0 / weightp=2 / keyint=240 / keyint_min=24 / scenecut=40 / intra_refresh=0 / rc_lookahead=60 / rc=2pass / mbtree=0 / bitrate=2950 / ratetol=1.0 / qcomp=0.60 / qpmin=0 / qpmax=69 / qpstep=4 / cplxblur=20.0 / qblur=0.5 / vbv_maxrate=62500 / vbv_bufsize=78125 / nal_hrd=none / filler=0 / ip_ratio=1.40 / pb_ratio=1.30 / aq=1:1.00
Language : English
Default : Yes
Forced : No
Color range : Limited
Color primaries : BT.709
Transfer characteristics : BT.709
Matrix coefficients : BT.709
Audio #1
ID : 2
Format : AAC
Format/Info : Advanced Audio Codec
Format profile : HE-AAC / LC
Codec ID : A_AAC
Duration : 1 h 24 min
Bit rate : 256 kb/s
Channel(s) : 6 channels
Channel positions : Front: L C R, Side: L R, LFE
Sampling rate : 48.0 kHz / 24.0 kHz
Frame rate : 23.438 FPS (1024 SPF)
Compression mode : Lossy
Delay relative to video : -105 ms
Stream size : 155 MiB (7%)
Title : HE-AAC 6 ch, 24|48 kHz ~256 kbps - MVO [West Video]
Language : Russian
Default : Yes
Forced : No
Audio #2
ID : 3
Format : AAC
Format/Info : Advanced Audio Codec
Format profile : HE-AAC / LC
Codec ID : A_AAC
Duration : 1 h 24 min
Bit rate : 256 kb/s
Channel(s) : 6 channels
Channel positions : Front: L C R, Side: L R, LFE
Sampling rate : 48.0 kHz / 24.0 kHz
Frame rate : 23.438 FPS (1024 SPF)
Compression mode : Lossy
Delay relative to video : -105 ms
Stream size : 155 MiB (7%)
Title : HE-AAC 6 ch, 24|48 kHz ~256 kbps - AVO [Гаврилов]
Language : Russian
Default : No
Forced : No
Audio #3
ID : 4
Format : AAC
Format/Info : Advanced Audio Codec
Format profile : LC
Codec ID : A_AAC
Duration : 1 h 24 min
Bit rate : 224 kb/s
Channel(s) : 2 channels
Channel positions : Front: L R
Sampling rate : 48.0 kHz
Frame rate : 46.875 FPS (1024 SPF)
Compression mode : Lossy
Delay relative to video : -21 ms
Stream size : 136 MiB (6%)
Title : AAC 2 ch, 48 kHz ~224 kbps - Original
Language : English
Default : No
Forced : No
Text #1
ID : 5
Format : ASS
Codec ID : S_TEXT/ASS
Codec ID/Info : Advanced Sub Station Alpha
Duration : 1 h 19 min
Bit rate : 71 b/s
Count of elements : 476
Compression mode : Lossless
Stream size : 41.9 KiB (0%)
Language : Russian
Default : No
Forced : No
Text #2
ID : 6
Format : ASS
Codec ID : S_TEXT/ASS
Codec ID/Info : Advanced Sub Station Alpha
Duration : 1 h 17 min
Bit rate : 63 b/s
Count of elements : 661
Compression mode : Lossless
Stream size : 36.2 KiB (0%)
Language : English
Default : No
Forced : No
Menu
00:00:00.000 : :Chapter 1
00:05:34.356 : :Chapter 2
00:10:18.098 : :Chapter 3
00:18:36.763 : :Chapter 4
00:24:00.920 : :Chapter 5
00:26:31.237 : :Chapter 6
00:30:51.455 : :Chapter 7
00:37:28.310 : :Chapter 8
00:41:56.995 : :Chapter 9
00:49:31.449 : :Chapter 10
00:53:02.076 : :Chapter 11
00:59:31.673 : :Chapter 12
01:02:01.907 : :Chapter 13
01:08:54.486 : :Chapter 14
01:14:18.059 : :Chapter 15
Восставший из ада 5: Преисподняя / Hellraiser: Inferno- -- Год выпуска: 2000
Страна: США
Жанр: Ужасы, триллер
Продолжительность: 01:40:10
Перевод: Профессиональный многоголосый--Режиссер: Скотт Дерриксон--В ролях: Крэйг Шеффер, Николас Туртурро, Джеймс Римар, Даг Брэдли, Николас Сэдлер, Ноэль Эванс, Линдсэй Тейлор, Мэтт Джордж, Майкл Шамус Уайлз, Саша Баррези-- Созданная в 18-м веке магическая головоломка, способная открыть дорогу в ад, попадает в руки порочного полицейского из Лос-Анджелеса. И с этого момента все вокруг становится кошмаром. Может это возмездие за его неправедную жизнь? Но тогда очень страшное, потому что беспредел, творимый Джозефом, оказывается лишь бледной тенью настоящего адского бесчинства, через которое ему предстоит пройти...-- Качество: BDRip-AVC
Формат: MKV
Видео кодек: H.264, 1024x576, 23.976 fps, 2442 kb/s
Аудио кодек #1: AAC, 48.0 kHz, 6 channels, 224 kb/s - MVO [rus]
Аудио кодек #2: AAC, 48.0 kHz, 6 channels, 224 kb/s - AVO [Гаврилов]
Аудио кодек #3: AAC, 48.0 kHz, 6 channels, 224 kb/s - Original [eng]
Субтитры: Русские и Английские--

Рейтинг фильма --
General
Unique ID : 231417802492155317811578986751555936186 (0xAE19729288109C378B17A60ED9121FBA)
Complete name : F:\Kino\Ужасы\Восставший из ада - Антология\Восставший из ада 5 - Преисподняя (2000).mkv
Format : Matroska
Format version : Version 4 / Version 2
File size : 2.18 GiB
Duration : 1 h 40 min
Overall bit rate : 3 110 kb/s
Encoded date : UTC 2015-09-30 08:52:16
Writing application : mkvmerge v8.4.0 ('A better way to fly') 64bit
Writing library : libebml v1.3.1 + libmatroska v1.4.2 / Lavf55.12.0
Cover : Yes
Attachments : Cover_5.jpg
Video
ID : 1
Format : AVC
Format/Info : Advanced Video Codec
Format profile : High@L4.1
Format settings, CABAC : Yes
Format settings, RefFrames : 12 frames
Codec ID : V_MPEG4/ISO/AVC
Duration : 1 h 40 min
Bit rate : 2 442 kb/s
Width : 1 024 pixels
Height : 576 pixels
Display aspect ratio : 16:9
Frame rate mode : Constant
Frame rate : 23.976 (24000/1001) FPS
Color space : YUV
Chroma subsampling : 4:2:0
Bit depth : 8 bits
Scan type : Progressive
Bits/(Pixel*Frame) : 0.173
Stream size : 1.71 GiB (78%)
Title : MPEG-4, 1024x576, 23.976 fps ~2442 kbps
Writing library : x264 core 142 r2479 dd79a61
Encoding settings : cabac=1 / ref=12 / deblock=1:-3:-3 / analyse=0x3:0x133 / me=umh / subme=11 / psy=1 / psy_rd=1.00:0.15 / mixed_ref=1 / me_range=48 / chroma_me=1 / trellis=2 / 8x8dct=1 / cqm=0 / deadzone=21,11 / fast_pskip=0 / chroma_qp_offset=-3 / threads=6 / lookahead_threads=1 / sliced_threads=0 / nr=0 / decimate=1 / interlaced=0 / bluray_compat=0 / constrained_intra=0 / bframes=13 / b_pyramid=2 / b_adapt=2 / b_bias=0 / direct=3 / weightb=1 / open_gop=0 / weightp=2 / keyint=240 / keyint_min=24 / scenecut=40 / intra_refresh=0 / rc_lookahead=60 / rc=2pass / mbtree=0 / bitrate=2442 / ratetol=1.0 / qcomp=0.60 / qpmin=0 / qpmax=69 / qpstep=4 / cplxblur=20.0 / qblur=0.5 / vbv_maxrate=62500 / vbv_bufsize=78125 / nal_hrd=none / filler=0 / ip_ratio=1.40 / pb_ratio=1.30 / aq=1:1.00
Language : English
Default : Yes
Forced : No
Color range : Limited
Color primaries : BT.709
Transfer characteristics : BT.709
Matrix coefficients : BT.709
Audio #1
ID : 2
Format : AAC
Format/Info : Advanced Audio Codec
Format profile : HE-AAC / LC
Codec ID : A_AAC
Duration : 1 h 40 min
Bit rate : 224 kb/s
Channel(s) : 6 channels
Channel positions : Front: L C R, Side: L R, LFE
Sampling rate : 48.0 kHz / 24.0 kHz
Frame rate : 23.438 FPS (1024 SPF)
Compression mode : Lossy
Delay relative to video : -105 ms
Stream size : 161 MiB (7%)
Title : HE-AAC 6 ch, 24|48 kHz ~224 kbps - MVO
Language : Russian
Default : Yes
Forced : No
Audio #2
ID : 3
Format : AAC
Format/Info : Advanced Audio Codec
Format profile : HE-AAC / LC
Codec ID : A_AAC
Duration : 1 h 40 min
Bit rate : 224 kb/s
Channel(s) : 6 channels
Channel positions : Front: L C R, Side: L R, LFE
Sampling rate : 48.0 kHz / 24.0 kHz
Frame rate : 23.438 FPS (1024 SPF)
Compression mode : Lossy
Delay relative to video : -105 ms
Stream size : 160 MiB (7%)
Title : HE-AAC 6 ch, 24|48 kHz ~224 kbps - AVO [Гаврилов]
Language : Russian
Default : No
Forced : No
Audio #3
ID : 4
Format : AAC
Format/Info : Advanced Audio Codec
Format profile : HE-AAC / LC
Codec ID : A_AAC
Duration : 1 h 40 min
Bit rate : 224 kb/s
Channel(s) : 6 channels
Channel positions : Front: L C R, Side: L R, LFE
Sampling rate : 48.0 kHz / 24.0 kHz
Frame rate : 23.438 FPS (1024 SPF)
Compression mode : Lossy
Delay relative to video : -105 ms
Stream size : 160 MiB (7%)
Title : HE-AAC 6 ch, 24|48 kHz ~224 kbps - Original
Language : English
Default : No
Forced : No
Text #1
ID : 5
Format : UTF-8
Codec ID : S_TEXT/UTF8
Codec ID/Info : UTF-8 Plain Text
Duration : 1 h 33 min
Bit rate : 66 b/s
Count of elements : 627
Stream size : 45.9 KiB (0%)
Language : Russian
Default : Yes
Forced : No
Text #2
ID : 6
Format : UTF-8
Codec ID : S_TEXT/UTF8
Codec ID/Info : UTF-8 Plain Text
Duration : 1 h 38 min
Bit rate : 42 b/s
Count of elements : 860
Stream size : 30.5 KiB (0%)
Language : English
Default : No
Forced : No
Восставший из ада 6: Поиски ада / Hellraiser: Hellseeker- -- Год выпуска: 2001
Страна: Kанада, США
Жанр: Ужасы
Продолжительность: 01:28:52
Перевод: Профессиональный многоголосый--Режиссер: Рик Бота--В ролях: Дин Уинтерс, Эшли Лоуренс, Даг Брэдли, Рэйчел Хейуорд, Сара-Джейн Редмонд, Джоди Томпсон, Каарен Де Зилва, Уильям С. Тейлор, Майкл Роджерс-- Спустя месяц после автокатастрофы, когда Тревор пришел в себя, выясняется, что тело его жены Кирсти так и не было найдено!
Он возвращается к работе, но с ним начинают происходить ужасные вещи. Тревор оказывается в адском лабиринте, где непостижимым кошмаром сплелись жизнь и смерть. И он должен заплатить цену прежде, чем узнает ответ...-- Качество: BDRip-AVC
Формат: MKV
Видео кодек: H.264, 1024x550, 23.976 fps, 2426 kb/s
Аудио кодек #1: AAC, 48.0 kHz, 6 channels, 256 kb/s - MVO [rus]
Аудио кодек #2: AAC, 48.0 kHz, 6 channels, 256 kb/s - AVO [Визгунов] [rus]
Аудио кодек #3: AAC, 48.0 kHz, 6 channels, 256 kb/s - AVO [Дольский] [rus]
Аудио кодек #4: AAC, 48.0 kHz, 2 channels, 128 kb/s - AVO [Гаврилов] [rus]
Аудио кодек #5: AAC, 48.0 kHz, 2 channels, 192 kb/s - Original [eng]
Субтитры: Английские--

Рейтинг фильма --
General
Unique ID : 242421792818984029097395870938984230082 (0xB660BD2EDB125FF4B7D0E94A54122CC2)
Complete name : F:\Kino\Ужасы\Восставший из ада - Коллекция\Восставший из ада 6 - Поиски ада (2001).mkv
Format : Matroska
Format version : Version 4 / Version 2
File size : 2.18 GiB
Duration : 1 h 28 min
Overall bit rate : 3 518 kb/s
Movie name : HELLRAISER 6_MVO_3 AVO_Eng
Encoded date : UTC 2015-10-22 08:36:21
Writing application : mkvmerge v8.4.0 ('A better way to fly') 64bit
Writing library : libebml v1.3.1 + libmatroska v1.4.2 / Lavf55.12.0
Cover : Yes
Attachments : Cover_6.jpg
Video
ID : 1
Format : AVC
Format/Info : Advanced Video Codec
Format profile : High@L4.1
Format settings, CABAC : Yes
Format settings, RefFrames : 11 frames
Codec ID : V_MPEG4/ISO/AVC
Duration : 1 h 28 min
Bit rate : 2 426 kb/s
Width : 1 024 pixels
Height : 550 pixels
Display aspect ratio : 1.85:1
Frame rate mode : Constant
Frame rate : 23.976 (24000/1001) FPS
Color space : YUV
Chroma subsampling : 4:2:0
Bit depth : 8 bits
Scan type : Progressive
Bits/(Pixel*Frame) : 0.180
Stream size : 1.51 GiB (69%)
Title : MPEG-4, 1024x550, 23.976 fps ~2426 kbps
Writing library : x264 core 142 r2479 dd79a61
Encoding settings : cabac=1 / ref=11 / deblock=1:-3:-3 / analyse=0x3:0x133 / me=umh / subme=11 / psy=1 / psy_rd=1.00:0.12 / mixed_ref=1 / me_range=48 / chroma_me=1 / trellis=2 / 8x8dct=1 / cqm=0 / deadzone=21,11 / fast_pskip=0 / chroma_qp_offset=-3 / threads=6 / lookahead_threads=1 / sliced_threads=0 / nr=0 / decimate=1 / interlaced=0 / bluray_compat=0 / constrained_intra=0 / bframes=12 / b_pyramid=2 / b_adapt=2 / b_bias=0 / direct=3 / weightb=1 / open_gop=0 / weightp=2 / keyint=240 / keyint_min=24 / scenecut=40 / intra_refresh=0 / rc_lookahead=60 / rc=2pass / mbtree=0 / bitrate=2426 / ratetol=1.0 / qcomp=0.60 / qpmin=0 / qpmax=69 / qpstep=4 / cplxblur=20.0 / qblur=0.5 / vbv_maxrate=62500 / vbv_bufsize=78125 / nal_hrd=none / filler=0 / ip_ratio=1.40 / pb_ratio=1.30 / aq=1:1.00
Language : English
Default : Yes
Forced : No
Color range : Limited
Color primaries : BT.709
Transfer characteristics : BT.709
Matrix coefficients : BT.709
Audio #1
ID : 2
Format : AAC
Format/Info : Advanced Audio Codec
Format profile : HE-AAC / LC
Codec ID : A_AAC
Duration : 1 h 28 min
Bit rate : 256 kb/s
Channel(s) : 6 channels
Channel positions : Front: L C R, Side: L R, LFE
Sampling rate : 48.0 kHz / 24.0 kHz
Frame rate : 23.438 FPS (1024 SPF)
Compression mode : Lossy
Delay relative to video : -105 ms
Stream size : 163 MiB (7%)
Title : HE-AAC 6 ch, 24|48 kHz ~256 kbps - MVO
Language : Russian
Default : Yes
Forced : No
Audio #2
ID : 3
Format : AAC
Format/Info : Advanced Audio Codec
Format profile : HE-AAC / LC
Codec ID : A_AAC
Duration : 1 h 28 min
Bit rate : 256 kb/s
Channel(s) : 6 channels
Channel positions : Front: L C R, Side: L R, LFE
Sampling rate : 48.0 kHz / 24.0 kHz
Frame rate : 23.438 FPS (1024 SPF)
Compression mode : Lossy
Delay relative to video : -105 ms
Stream size : 163 MiB (7%)
Title : HE-AAC 6 ch, 24|48 kHz ~256 kbps - AVO [Визгунов]
Language : Russian
Default : No
Forced : No
Audio #3
ID : 4
Format : AAC
Format/Info : Advanced Audio Codec
Format profile : HE-AAC / LC
Codec ID : A_AAC
Duration : 1 h 28 min
Bit rate : 256 kb/s
Channel(s) : 6 channels
Channel positions : Front: L C R, Side: L R, LFE
Sampling rate : 48.0 kHz / 24.0 kHz
Frame rate : 23.438 FPS (1024 SPF)
Compression mode : Lossy
Delay relative to video : -105 ms
Stream size : 163 MiB (7%)
Title : HE-AAC 6 ch, 24|48 kHz ~256 kbps - AVO [Дольский]
Language : Russian
Default : No
Forced : No
Audio #4
ID : 5
Format : AAC
Format/Info : Advanced Audio Codec
Format profile : LC
Codec ID : A_AAC
Duration : 1 h 28 min
Bit rate : 128 kb/s
Channel(s) : 2 channels
Channel positions : Front: L R
Sampling rate : 48.0 kHz
Frame rate : 46.875 FPS (1024 SPF)
Compression mode : Lossy
Delay relative to video : -21 ms
Stream size : 81.5 MiB (4%)
Title : AAC 2 ch, 48 kHz ~128 kbps - AVO [Гаврилов]
Language : Russian
Default : No
Forced : No
Audio #5
ID : 6
Format : AAC
Format/Info : Advanced Audio Codec
Format profile : LC
Codec ID : A_AAC
Duration : 1 h 28 min
Bit rate : 192 kb/s
Channel(s) : 2 channels
Channel positions : Front: L R
Sampling rate : 48.0 kHz
Frame rate : 46.875 FPS (1024 SPF)
Compression mode : Lossy
Delay relative to video : -21 ms
Stream size : 122 MiB (5%)
Title : AAC 2 ch, 48 kHz ~192 kbps - Original
Language : English
Default : No
Forced : No
Text
ID : 7
Format : ASS
Codec ID : S_TEXT/ASS
Codec ID/Info : Advanced Sub Station Alpha
Duration : 1 h 22 min
Bit rate : 63 b/s
Count of elements : 670
Compression mode : Lossless
Stream size : 38.6 KiB (0%)
Language : English
Default : No
Forced : No
Восставший из ада 7: Армия мертвецов / Hellraiser: Deader- -- Год выпуска: 2003
Страна: США, Румыния
Жанр: Ужасы, триллер, детектив
Продолжительность: 01:28:21
Перевод: Профессиональный многоголосый--Режиссер: Рик Бота--В ролях: Кари Вурер, Пол Рис, Саймон Кунц, Марк Уоррен, Джорджина Райлэнс, Даг Брэдли, Ионут Черменски, Хью Джорджин, Линда Марлоу, Мадалина Константин-- Журналистка лондонской газеты Эми Кляйн отправляется в Бухарест, чтобы расследовать там действия тайной секты, члены которой добровольно расстаются с жизнью путем самоубийства. Она с легкостью проникает в мрачный мир секты, но вскоре понимает, что теперь у нее нет другого пути кроме как присоединиться к ее участникам в приготовлениях к пришествию их божества...-- Качество: BDRip-AVC
Формат: MKV
Видео кодек: H.264, 1024x576, 23.976 fps, 2700 kb/s
Аудио кодек #1: AAC, 48.0 kHz, 2 channels, 224 kb/s - MVO [rus]
Аудио кодек #2: AAC, 48.0 kHz, 2 channels, 128 kb/s - MVO [Элегия] [rus]
Аудио кодек #3: AAC, 48.0 kHz, 2 channels, 224 kb/s - AVO [Гаврилов]
Аудио кодек #4: AAC, 48.0 kHz, 6 channels, 256 kb/s - Original [eng]
Субтитры: Английские--

Рейтинг фильма --
General
Unique ID : 212273169765777569047026116432433029781 (0x9FB2534DB064B946969FA25683F4A295)
Complete name : F:\Kino\Ужасы\Восставший из ада - Коллекция\Восставший из ада 7 - Армия мертвецов (2003).mkv
Format : Matroska
Format version : Version 4 / Version 2
File size : 2.18 GiB
Duration : 1 h 28 min
Overall bit rate : 3 535 kb/s
Encoded date : UTC 2015-10-26 05:06:04
Writing application : mkvmerge v8.4.0 ('A better way to fly') 64bit
Writing library : libebml v1.3.1 + libmatroska v1.4.2 / Lavf55.12.0
Cover : Yes
Attachments : Cover_7.jpg
Video
ID : 1
Format : AVC
Format/Info : Advanced Video Codec
Format profile : High@L4.1
Format settings, CABAC : Yes
Format settings, RefFrames : 10 frames
Codec ID : V_MPEG4/ISO/AVC
Duration : 1 h 28 min
Bit rate : 2 700 kb/s
Width : 1 024 pixels
Height : 576 pixels
Display aspect ratio : 16:9
Frame rate mode : Constant
Frame rate : 23.976 (24000/1001) FPS
Color space : YUV
Chroma subsampling : 4:2:0
Bit depth : 8 bits
Scan type : Progressive
Bits/(Pixel*Frame) : 0.191
Stream size : 1.67 GiB (76%)
Title : MPEG-4, 1024x576, 23.976 fps ~2700 kbps
Writing library : x264 core 142 r2479 dd79a61
Encoding settings : cabac=1 / ref=10 / deblock=1:-2:-2 / analyse=0x3:0x133 / me=umh / subme=11 / psy=1 / psy_rd=1.00:0.13 / mixed_ref=1 / me_range=48 / chroma_me=1 / trellis=2 / 8x8dct=1 / cqm=0 / deadzone=21,11 / fast_pskip=0 / chroma_qp_offset=-3 / threads=6 / lookahead_threads=1 / sliced_threads=0 / nr=0 / decimate=1 / interlaced=0 / bluray_compat=0 / constrained_intra=0 / bframes=13 / b_pyramid=2 / b_adapt=2 / b_bias=0 / direct=3 / weightb=1 / open_gop=0 / weightp=2 / keyint=240 / keyint_min=24 / scenecut=40 / intra_refresh=0 / rc_lookahead=60 / rc=2pass / mbtree=0 / bitrate=2700 / ratetol=1.0 / qcomp=0.60 / qpmin=0 / qpmax=69 / qpstep=4 / cplxblur=20.0 / qblur=0.5 / vbv_maxrate=62500 / vbv_bufsize=78125 / nal_hrd=none / filler=0 / ip_ratio=1.40 / pb_ratio=1.30 / aq=1:1.00
Language : English
Default : Yes
Forced : No
Color range : Limited
Color primaries : BT.709
Transfer characteristics : BT.709
Matrix coefficients : BT.709
Audio #1
ID : 2
Format : AAC
Format/Info : Advanced Audio Codec
Format profile : HE-AACv2 / HE-AAC / LC
Codec ID : A_AAC
Duration : 1 h 28 min
Bit rate : 224 kb/s
Channel(s) : 2 channels / 6 channels / 6 channels
Channel positions : Front: L R / Front: L C R, Side: L R, LFE / Front: L C R, Side: L R, LFE
Sampling rate : 48.0 kHz / 48.0 kHz / 24.0 kHz
Frame rate : 23.438 FPS (1024 SPF)
Compression mode : Lossy
Delay relative to video : -105 ms
Stream size : 142 MiB (6%)
Title : HE-AAC 6 ch, 24|48 kHz ~224 kbps - MVO
Language : Russian
Default : Yes
Forced : No
Audio #2
ID : 3
Format : AAC
Format/Info : Advanced Audio Codec
Format profile : LC
Codec ID : A_AAC
Duration : 1 h 28 min
Bit rate : 128 kb/s
Channel(s) : 2 channels
Channel positions : Front: L R
Sampling rate : 48.0 kHz
Frame rate : 46.875 FPS (1024 SPF)
Compression mode : Lossy
Delay relative to video : -21 ms
Stream size : 81.1 MiB (4%)
Title : AAC 2 ch, 48 kHz ~128 kbps - MVO [Элегия]
Language : Russian
Default : No
Forced : No
Audio #3
ID : 4
Format : AAC
Format/Info : Advanced Audio Codec
Format profile : HE-AACv2 / HE-AAC / LC
Codec ID : A_AAC
Duration : 1 h 28 min
Bit rate : 224 kb/s
Channel(s) : 2 channels / 6 channels / 6 channels
Channel positions : Front: L R / Front: L C R, Side: L R, LFE / Front: L C R, Side: L R, LFE
Sampling rate : 48.0 kHz / 48.0 kHz / 24.0 kHz
Frame rate : 23.438 FPS (1024 SPF)
Compression mode : Lossy
Delay relative to video : -105 ms
Stream size : 142 MiB (6%)
Title : HE-AAC 6 ch, 24|48 kHz ~224 kbps - AVO [Гаврилов]
Language : Russian
Default : No
Forced : No
Audio #4
ID : 5
Format : AAC
Format/Info : Advanced Audio Codec
Format profile : HE-AAC / LC
Codec ID : A_AAC
Duration : 1 h 28 min
Bit rate : 256 kb/s
Channel(s) : 6 channels
Channel positions : Front: L C R, Side: L R, LFE
Sampling rate : 48.0 kHz / 24.0 kHz
Frame rate : 23.438 FPS (1024 SPF)
Compression mode : Lossy
Delay relative to video : -105 ms
Stream size : 162 MiB (7%)
Title : HE-AAC 6 ch, 24|48 kHz ~256 kbps - Original
Language : English
Default : No
Forced : No
Text
ID : 6
Format : ASS
Codec ID : S_TEXT/ASS
Codec ID/Info : Advanced Sub Station Alpha
Duration : 1 h 24 min
Bit rate : 61 b/s
Count of elements : 842
Compression mode : Lossless
Stream size : 37.9 KiB (0%)
Language : English
Default : No
Forced : No
Восставший из ада 8: Адский мир / Hellraiser: Hellworld- -- Год выпуска: 2005
Страна: Великобритания
Жанр: Ужасы, триллер
Продолжительность: 01:34:59
Перевод: Профессиональный многоголосый--Режиссер: Рик Бота--В ролях: Лэнс Хенриксен, Кэтрин Уинник, Кристофер Жако, Хари Пэйтон, Генри Кавилл, Анна Толпатт, Виктор МакГуайр, Даг Брэдли, Стелиан Уриан-- Группа подростков, увлечённых онлайн-игрой Hellraiser и достигших в ней определённых успехов, получает от сайта Hellworld.com приглашение на закрытую вечеринку. Попав туда, ребята понимают, что совершили ужасную ошибку, и теперь их любимая игра стала кошмарной реальностью...-- Качество: BDRip-AVC
Формат: MKV
Видео кодек: H.264, 1024x576, 23.976 fps, 2678 kb/s
Аудио кодек #1: AAC, 48.0 kHz, 2 channels, 128 kb/s - MVO [Элегия] [rus]
Аудио кодек #2: AAC, 48.0 kHz, 6 channels, 224 kb/s - AVO [Гаврилов] [rus]
Аудио кодек #3: AAC, 48.0 kHz, 2 channels, 256 kb/s - Original [eng]--

Рейтинг фильма --
General
Unique ID : 182703674037254857110778549679756227526 (0x8973729B03012BEA946B888D067533C6)
Complete name : F:\Kino\Ужасы\Восставший из ада - Коллекция\Восставший из ада 8 - Адский мир (2005).mkv
Format : Matroska
Format version : Version 4 / Version 2
File size : 2.18 GiB
Duration : 1 h 34 min
Overall bit rate : 3 287 kb/s
Encoded date : UTC 2015-10-30 09:05:04
Writing application : mkvmerge v8.4.0 ('A better way to fly') 64bit
Writing library : libebml v1.3.1 + libmatroska v1.4.2 / Lavf55.12.0
Cover : Yes
Attachments : Cover_8.jpg
Video
ID : 1
Format : AVC
Format/Info : Advanced Video Codec
Format profile : High@L4.1
Format settings, CABAC : Yes
Format settings, RefFrames : 12 frames
Codec ID : V_MPEG4/ISO/AVC
Duration : 1 h 34 min
Bit rate : 2 678 kb/s
Width : 1 024 pixels
Height : 576 pixels
Display aspect ratio : 16:9
Frame rate mode : Constant
Frame rate : 23.976 (24000/1001) FPS
Color space : YUV
Chroma subsampling : 4:2:0
Bit depth : 8 bits
Scan type : Progressive
Bits/(Pixel*Frame) : 0.189
Stream size : 1.78 GiB (81%)
Title : MPEG-4, 1024x576, 23.976 fps ~2678kbps
Writing library : x264 core 142 r2479 dd79a61
Encoding settings : cabac=1 / ref=12 / deblock=1:-2:-2 / analyse=0x3:0x133 / me=umh / subme=11 / psy=1 / psy_rd=1.00:0.12 / mixed_ref=1 / me_range=48 / chroma_me=1 / trellis=2 / 8x8dct=1 / cqm=0 / deadzone=21,11 / fast_pskip=0 / chroma_qp_offset=-3 / threads=6 / lookahead_threads=1 / sliced_threads=0 / nr=0 / decimate=1 / interlaced=0 / bluray_compat=0 / constrained_intra=0 / bframes=13 / b_pyramid=2 / b_adapt=2 / b_bias=0 / direct=3 / weightb=1 / open_gop=0 / weightp=2 / keyint=240 / keyint_min=24 / scenecut=40 / intra_refresh=0 / rc_lookahead=60 / rc=2pass / mbtree=0 / bitrate=2678 / ratetol=1.0 / qcomp=0.60 / qpmin=0 / qpmax=69 / qpstep=4 / cplxblur=20.0 / qblur=0.5 / vbv_maxrate=62500 / vbv_bufsize=78125 / nal_hrd=none / filler=0 / ip_ratio=1.40 / pb_ratio=1.30 / aq=1:1.00
Language : English
Default : Yes
Forced : No
Color range : Limited
Color primaries : BT.709
Transfer characteristics : BT.709
Matrix coefficients : BT.709
Audio #1
ID : 2
Format : AAC
Format/Info : Advanced Audio Codec
Format profile : LC
Codec ID : A_AAC
Duration : 1 h 34 min
Bit rate : 128 kb/s
Channel(s) : 2 channels
Channel positions : Front: L R
Sampling rate : 48.0 kHz
Frame rate : 46.875 FPS (1024 SPF)
Compression mode : Lossy
Delay relative to video : -42 ms
Stream size : 87.0 MiB (4%)
Title : AAC 2 ch, 48 kHz ~128 kbps - MVO [Элегия]
Language : Russian
Default : Yes
Forced : No
Audio #2
ID : 3
Format : AAC
Format/Info : Advanced Audio Codec
Format profile : HE-AAC / LC
Codec ID : A_AAC
Duration : 1 h 34 min
Bit rate : 224 kb/s
Channel(s) : 6 channels
Channel positions : Front: L C R, Side: L R, LFE
Sampling rate : 48.0 kHz / 24.0 kHz
Frame rate : 23.438 FPS (1024 SPF)
Compression mode : Lossy
Delay relative to video : -105 ms
Stream size : 152 MiB (7%)
Title : HE-AAC 6 ch, 24|48 kHz ~224 kbps - AVO [Гаврилов]
Language : Russian
Default : No
Forced : No
Audio #3
ID : 4
Format : AAC
Format/Info : Advanced Audio Codec
Format profile : HE-AACv2 / HE-AAC / LC
Codec ID : A_AAC
Duration : 1 h 34 min
Bit rate : 256 kb/s
Channel(s) : 2 channels / 6 channels / 6 channels
Channel positions : Front: L R / Front: L C R, Side: L R, LFE / Front: L C R, Side: L R, LFE
Sampling rate : 48.0 kHz / 48.0 kHz / 24.0 kHz
Frame rate : 23.438 FPS (1024 SPF)
Compression mode : Lossy
Delay relative to video : -105 ms
Stream size : 174 MiB (8%)
Title : HE-AAC 6 ch, 24|48 kHz ~256 kbps - Original
Language : English
Default : No
Forced : No
Восставший из ада 9 : Откровение / Hellraiser: Revelations- -- Год выпуска: 2011
Страна: США
Жанр: Ужасы
Продолжительность: 01:15:07
Перевод: Авторский одноголосый--Режиссер: Виктор Гарсия--В ролях: Дэн Буран, Стивен Брэнд, Ник Эверсман, Джолин Андерсен, Стефан Смит Коллинз, Трэйси Харрис, Джей Гиллеспи, Себастьен Робертс, Сэнни Ван Хетерен, Адель Мари Руис-- Пинхэд возвращается. Двое путешествующих друзей Стив и Нико находят в Мексике коробку-паззл. Нико предлагает Стивену открыть коробку и тот оказывается во власти Пинхэда. Родные Стивена всеми силами будут стараться вернуть его обратно в мир живых. Нико, который, оказывается, другом только прикидывался, на самом деле не так прост и имеет свои интересы на Стива, на коробку и даже на Пинхэда...-- Качество: BDRip-AVC
Формат: MKV
Видео кодек: H.264, 1080x608, 23.976 fps, 2900 kb/s
Аудио кодек #1: AAC, 48.0 kHz, 6 channels, 23.438 fps - AVO [Дольский] [rus]
Аудио кодек #2: AAC, 48.0 kHz, 6 channels, 23.438 fps - VO [*Jonathan* Сафронов]
Аудио кодек #3: AAC, 48.0 kHz, 6 channels, 23.438 fps - VO [ssvss] [rus]
Аудио кодек #4: AAC, 48.0 kHz, 2 channels, 23.438 fps - VO [den904] [rus]
Аудио кодек #5: AAC, 48.0 kHz, 6 channels, 46.875 fps - Original [eng]
Субтитры: Русские и Английские--

Рейтинг фильма --
General
Unique ID : 283799262158944044932334260010460698205 (0xD581BFED906C9F586A68D6416DB0D65D)
Complete name : F:\Kino\Ужасы\Восставший из ада - Коллекция\Восставший из ада 9 - Откровения (2011).mkv
Format : Matroska
Format version : Version 4 / Version 2
File size : 2.14 GiB
Duration : 1 h 15 min
Overall bit rate : 4 086 kb/s
Movie name : Hellraiser: Revelations (2011) BDRip-AVC от DrVampir
Encoded date : UTC 2018-09-07 11:20:43 / UTC 2018-03-12T12:23:24Z
Writing application : mkvmerge v26.0.0 ('In The Game') 64-bit
Writing library : libebml v1.3.6 + libmatroska v1.4.9 / Lavf57.7.2
Cover : Yes
Attachments : Cover.jpg
Video
ID : 1
Format : AVC
Format/Info : Advanced Video Codec
Format profile : High@L4.1
Format settings, CABAC : Yes
Format settings, RefFrames : 10 frames
Codec ID : V_MPEG4/ISO/AVC
Duration : 1 h 15 min
Nominal bit rate : 2 900 kb/s
Width : 1 080 pixels
Height : 608 pixels
Display aspect ratio : 16:9
Frame rate mode : Constant
Frame rate : 23.976 (24000/1001) FPS
Color space : YUV
Chroma subsampling : 4:2:0
Bit depth : 8 bits
Scan type : Progressive
Bits/(Pixel*Frame) : 0.184
Title : MPEG-4, 1080x608, 23.976 fps ~2900 kbps
Writing library : x264 core 148 r2708 86b7198
Encoding settings : cabac=1 / ref=10 / deblock=1:-3:-2 / analyse=0x3:0x133 / me=umh / subme=11 / psy=1 / psy_rd=1.00:0.15 / mixed_ref=1 / me_range=56 / chroma_me=1 / trellis=2 / 8x8dct=1 / cqm=0 / deadzone=21,11 / fast_pskip=0 / chroma_qp_offset=-3 / threads=6 / lookahead_threads=1 / sliced_threads=0 / nr=0 / decimate=1 / interlaced=0 / bluray_compat=0 / constrained_intra=0 / bframes=12 / b_pyramid=2 / b_adapt=2 / b_bias=0 / direct=3 / weightb=1 / open_gop=0 / weightp=2 / keyint=240 / keyint_min=24 / scenecut=40 / intra_refresh=0 / rc_lookahead=80 / rc=2pass / mbtree=0 / bitrate=2900 / ratetol=1.0 / qcomp=0.60 / qpmin=0 / qpmax=69 / qpstep=4 / cplxblur=20.0 / qblur=0.5 / vbv_maxrate=62500 / vbv_bufsize=78125 / nal_hrd=none / filler=0 / ip_ratio=1.40 / pb_ratio=1.30 / aq=1:1.00
Language : English
Default : Yes
Forced : No
Color range : Limited
Color primaries : BT.709
Transfer characteristics : BT.709
Matrix coefficients : BT.709
Statistics Tags Issue : mkvmerge v26.0.0 ('In The Game') 64-bit 2018-09-07 11:20:43 / mkvmerge v26.0.0 ('In The Game') 64-bit 2018-09-07 11:20:43 / UTC 2018-03-12T12:23:24Z
FromStats_BitRate : 2886735
FromStats_Duration : 01:15:07.170000000
FromStats_FrameCount : 108064
FromStats_StreamSize : 1626375775
Audio #1
ID : 2
Format : AAC
Format/Info : Advanced Audio Codec
Format profile : HE-AAC / LC
Codec ID : A_AAC
Duration : 1 h 15 min
Channel(s) : 6 channels
Channel positions : Front: L C R, Side: L R, LFE
Sampling rate : 48.0 kHz / 24.0 kHz
Frame rate : 23.438 FPS (1024 SPF)
Compression mode : Lossy
Delay relative to video : 10 ms
Title : HE-AAC 6 ch, 48 kHz ~224 kbps - AVO [Дольский]
Language : Russian
Default : Yes
Forced : No
Statistics Tags Issue : mkvmerge v26.0.0 ('In The Game') 64-bit 2018-09-07 11:20:43 / mkvmerge v26.0.0 ('In The Game') 64-bit 2018-09-07 11:20:43 / UTC 2018-03-12T12:23:24Z
FromStats_BitRate : 223789
FromStats_Duration : 01:15:07.307000000
FromStats_FrameCount : 105640
FromStats_StreamSize : 126085740
Audio #2
ID : 3
Format : AAC
Format/Info : Advanced Audio Codec
Format profile : HE-AAC / LC
Codec ID : A_AAC
Duration : 1 h 15 min
Channel(s) : 6 channels
Channel positions : Front: L C R, Side: L R, LFE
Sampling rate : 48.0 kHz / 24.0 kHz
Frame rate : 23.438 FPS (1024 SPF)
Compression mode : Lossy
Delay relative to video : 10 ms
Title : HE-AAC 6 ch, 48 kHz ~224 kbps - VO [*Jonathan* Сафронов]
Language : Russian
Default : No
Forced : No
Statistics Tags Issue : mkvmerge v26.0.0 ('In The Game') 64-bit 2018-09-07 11:20:43 / mkvmerge v26.0.0 ('In The Game') 64-bit 2018-09-07 11:20:43 / UTC 2018-03-12T12:23:24Z
FromStats_BitRate : 223789
FromStats_Duration : 01:15:07.179000000
FromStats_FrameCount : 105637
FromStats_StreamSize : 126082159
Audio #3
ID : 4
Format : AAC
Format/Info : Advanced Audio Codec
Format profile : HE-AAC / LC
Codec ID : A_AAC
Duration : 1 h 15 min
Channel(s) : 6 channels
Channel positions : Front: L C R, Side: L R, LFE
Sampling rate : 48.0 kHz / 24.0 kHz
Frame rate : 23.438 FPS (1024 SPF)
Compression mode : Lossy
Delay relative to video : 10 ms
Title : HE-AAC 6 ch, 48 kHz ~224 kbps - VO [ssvss]
Language : Russian
Default : No
Forced : No
Statistics Tags Issue : mkvmerge v26.0.0 ('In The Game') 64-bit 2018-09-07 11:20:43 / mkvmerge v26.0.0 ('In The Game') 64-bit 2018-09-07 11:20:43 / UTC 2018-03-12T12:23:24Z
FromStats_BitRate : 223789
FromStats_Duration : 01:15:07.264000000
FromStats_FrameCount : 105639
FromStats_StreamSize : 126084548
Audio #4
ID : 5
Format : AAC
Format/Info : Advanced Audio Codec
Format profile : HE-AAC / LC
Codec ID : A_AAC
Duration : 1 h 15 min
Channel(s) : 2 channels
Channel positions : Front: L R
Sampling rate : 48.0 kHz / 24.0 kHz
Frame rate : 23.438 FPS (1024 SPF)
Compression mode : Lossy
Delay relative to video : 10 ms
Title : HE-AAC 2 ch, 48 kHz ~76 kbps - VO [den904]
Language : Russian
Default : No
Forced : No
Statistics Tags Issue : mkvmerge v26.0.0 ('In The Game') 64-bit 2018-09-07 11:20:43 / mkvmerge v26.0.0 ('In The Game') 64-bit 2018-09-07 11:20:43 / UTC 2018-03-12T12:23:24Z
FromStats_BitRate : 75999
FromStats_Duration : 01:15:07.221000000
FromStats_FrameCount : 105638
FromStats_StreamSize : 42818405
Audio #5
ID : 6
Format : AAC
Format/Info : Advanced Audio Codec
Format profile : LC
Codec ID : A_AAC
Duration : 1 h 15 min
Channel(s) : 6 channels
Channel positions : Front: L C R, Side: L R, LFE
Sampling rate : 48.0 kHz
Frame rate : 46.875 FPS (1024 SPF)
Compression mode : Lossy
Delay relative to video : -21 ms
Title : AAC 6 ch, 48 kHz ~448 kbps - Original
Language : English
Default : No
Forced : No
Statistics Tags Issue : mkvmerge v26.0.0 ('In The Game') 64-bit 2018-09-07 11:20:43 / mkvmerge v26.0.0 ('In The Game') 64-bit 2018-09-07 11:20:43 / UTC 2018-03-12T12:23:24Z
FromStats_BitRate : 447381
FromStats_Duration : 01:15:07.125000000
FromStats_FrameCount : 211271
FromStats_StreamSize : 252050769
Text #1
ID : 7
Format : ASS
Codec ID : S_TEXT/ASS
Codec ID/Info : Advanced Sub Station Alpha
Compression mode : Lossless
Language : Russian
Default : No
Forced : No
Statistics Tags Issue : mkvmerge v26.0.0 ('In The Game') 64-bit 2018-09-07 11:20:43 / mkvmerge v26.0.0 ('In The Game') 64-bit 2018-09-07 11:20:43 / UTC 2018-03-12T12:23:24Z
FromStats_BitRate : 130
FromStats_Duration : 01:08:47.247000000
FromStats_FrameCount : 869
FromStats_StreamSize : 67216
Text #2
ID : 8
Format : ASS
Codec ID : S_TEXT/ASS
Codec ID/Info : Advanced Sub Station Alpha
Compression mode : Lossless
Language : English
Default : No
Forced : No
Statistics Tags Issue : mkvmerge v26.0.0 ('In The Game') 64-bit 2018-09-07 11:20:43 / mkvmerge v26.0.0 ('In The Game') 64-bit 2018-09-07 11:20:43 / UTC 2018-03-12T12:23:24Z
FromStats_BitRate : 95
FromStats_Duration : 01:09:21.033000000
FromStats_FrameCount : 940
FromStats_StreamSize : 49611
Menu
00:00:00.000 : en:Chapter 1
00:04:31.145 : en:Chapter 2
00:12:33.002 : en:Chapter 3
00:19:03.142 : en:Chapter 4
00:24:39.060 : en:Chapter 5
00:32:15.475 : en:Chapter 6
00:44:25.245 : en:Chapter 7
00:49:26.546 : en:Chapter 8
00:51:30.462 : en:Chapter 9
00:55:53.892 : en:Chapter 10
01:02:37.336 : en:Chapter 11
01:10:12.374 : en:Chapter 12
01:15:06.919 : en:Chapter 13
Восставший из ада 10: Приговор / Hellraiser: Judgment- -- Год выпуска: 2018
Страна: США
Жанр: Ужасы
Продолжительность: 01:21:10
Перевод: Профессиональный многоголосый--Режиссер: Гэри Дж. Танниклифф --В ролях: Рэнди Уэйн, Хэзер Лэнгенкэмп, Риган Уоллес, Алексис Харрис, Джон Гулагер, Пол Т. Тейлор, Майк Дж. Риган, Дэймон Карни, Молли Никки Андерсон, Мэри Кэтрин Брайант-- Детективы Шон и Дэвид Картеры расследует дело о жутких серийных убийствах. Объединив усилия с другим детективом, Кристин Эджертон, они следуют за убийцей всё дальше и дальше в лабиринт ужаса, которому нет места в мире живых. Чем глубже они опускаются по спирали в преисподнюю, тем явственнее понимают, что они клюнули не на ту наживку. Похоже, сенобиты ждут вовсе не жертв маньяка.-- Качество: BDRip-AVC
Формат: MKV
Видео кодек: H.264, 1080x608, 23.976 fps, 2800 kb/s
Аудио кодек #1: AAC, 48.0 kHz, 2 channels, 23.438 fps - DVO [HiWay Grope] [rus]
Аудио кодек #2: AAC, 48.0 kHz, 2 channels, 23.438 fps - MVO [Синема УС] [rus]
Аудио кодек #3: AAC, 48.0 kHz, 6 channels, 46.875 fps - Original [eng]
Субтитры: Русские и Английские--

Рейтинг фильма --
General
Unique ID : 103023678560504234077097296934180085348 (0x4D81A38541481DE585FFB6BE9EDDDE64)
Complete name : F:\Kino\Ужасы\Восставший из ада - Коллекция\Восставший из ада 10 - Приговор (2018).mkv
Format : Matroska
Format version : Version 4 / Version 2
File size : 1.99 GiB
Duration : 1 h 21 min
Overall bit rate : 3 514 kb/s
Movie name : Hellraiser: Judgment (2018) BDRip-AVC от DrVampir
Encoded date : UTC 2018-03-10 18:23:37 / UTC 2018-03-10T02:08:00Z
Writing application : mkvmerge v21.0.0 ('Tardigrades Will Inherit The Earth') 64-bit
Writing library : libebml v1.3.5 + libmatroska v1.4.8 / Lavf57.7.2
Cover : Yes
Attachments : Cover.jpg
Video
ID : 1
Format : AVC
Format/Info : Advanced Video Codec
Format profile : High@L4.1
Format settings, CABAC : Yes
Format settings, RefFrames : 11 frames
Codec ID : V_MPEG4/ISO/AVC
Duration : 1 h 21 min
Nominal bit rate : 2 800 kb/s
Width : 1 080 pixels
Height : 608 pixels
Display aspect ratio : 16:9
Frame rate mode : Constant
Frame rate : 23.976 (24000/1001) FPS
Color space : YUV
Chroma subsampling : 4:2:0
Bit depth : 8 bits
Scan type : Progressive
Bits/(Pixel*Frame) : 0.178
Title : MPEG-4, 1080x608, 23.976 fps ~2800 kbps
Writing library : x264 core 148 r2708 86b7198
Encoding settings : cabac=1 / ref=11 / deblock=1:-3:-2 / analyse=0x3:0x133 / me=umh / subme=11 / psy=1 / psy_rd=1.00:0.10 / mixed_ref=1 / me_range=56 / chroma_me=1 / trellis=2 / 8x8dct=1 / cqm=0 / deadzone=21,11 / fast_pskip=0 / chroma_qp_offset=-3 / threads=6 / lookahead_threads=1 / sliced_threads=0 / nr=0 / decimate=1 / interlaced=0 / bluray_compat=0 / constrained_intra=0 / bframes=13 / b_pyramid=2 / b_adapt=2 / b_bias=0 / direct=3 / weightb=1 / open_gop=0 / weightp=2 / keyint=240 / keyint_min=24 / scenecut=40 / intra_refresh=0 / rc_lookahead=80 / rc=2pass / mbtree=0 / bitrate=2800 / ratetol=1.0 / qcomp=0.60 / qpmin=0 / qpmax=69 / qpstep=4 / cplxblur=20.0 / qblur=0.5 / vbv_maxrate=62500 / vbv_bufsize=78125 / nal_hrd=none / filler=0 / ip_ratio=1.40 / pb_ratio=1.30 / aq=1:1.00
Language : English
Default : Yes
Forced : No
Color range : Limited
Color primaries : BT.709
Transfer characteristics : BT.709
Matrix coefficients : BT.709
Statistics Tags Issue : mkvmerge v21.0.0 ('Tardigrades Will Inherit The Earth') 64-bit 2018-03-10 18:23:37 / mkvmerge v21.0.0 ('Tardigrades Will Inherit The Earth') 64-bit 2018-03-10 18:23:37 / UTC 2018-03-10T02:08:00Z
FromStats_BitRate : 2799565
FromStats_Duration : 01:21:09.907000000
FromStats_FrameCount : 116761
FromStats_StreamSize : 1704203195
Audio #1
ID : 2
Format : AAC
Format/Info : Advanced Audio Codec
Format profile : HE-AACv2 / HE-AAC / LC
Codec ID : A_AAC
Duration : 1 h 21 min
Channel(s) : 2 channels / 6 channels / 6 channels
Channel positions : Front: L R / Front: L C R, Side: L R, LFE / Front: L C R, Side: L R, LFE
Sampling rate : 48.0 kHz / 48.0 kHz / 24.0 kHz
Frame rate : 23.438 FPS (1024 SPF)
Compression mode : Lossy
Delay relative to video : 10 ms
Title : HE-AAC 6 ch, 24|48 kHz ~192 kbps - DVO [HiWay Grope]
Language : Russian
Default : Yes
Forced : No
Statistics Tags Issue : mkvmerge v21.0.0 ('Tardigrades Will Inherit The Earth') 64-bit 2018-03-10 18:23:37 / mkvmerge v21.0.0 ('Tardigrades Will Inherit The Earth') 64-bit 2018-03-10 18:23:37 / UTC 2018-03-10T02:08:00Z
FromStats_BitRate : 191788
FromStats_Duration : 01:21:09.888000000
FromStats_FrameCount : 114138
FromStats_StreamSize : 116748757
Audio #2
ID : 3
Format : AAC
Format/Info : Advanced Audio Codec
Format profile : HE-AAC / LC
Codec ID : A_AAC
Duration : 1 h 21 min
Channel(s) : 2 channels
Channel positions : Front: L R
Sampling rate : 48.0 kHz / 24.0 kHz
Frame rate : 23.438 FPS (1024 SPF)
Compression mode : Lossy
Delay relative to video : 10 ms
Title : HE-AAC 2 ch, 24|48 kHz ~72 kbps - MVO [Синема УС]
Language : Russian
Default : No
Forced : No
Statistics Tags Issue : mkvmerge v21.0.0 ('Tardigrades Will Inherit The Earth') 64-bit 2018-03-10 18:23:37 / mkvmerge v21.0.0 ('Tardigrades Will Inherit The Earth') 64-bit 2018-03-10 18:23:37 / UTC 2018-03-10T02:08:00Z
FromStats_BitRate : 71999
FromStats_Duration : 01:21:10.443000000
FromStats_FrameCount : 114151
FromStats_StreamSize : 43833873
Audio #3
ID : 4
Format : AAC
Format/Info : Advanced Audio Codec
Format profile : LC
Codec ID : A_AAC
Duration : 1 h 21 min
Channel(s) : 6 channels
Channel positions : Front: L C R, Side: L R, LFE
Sampling rate : 48.0 kHz
Frame rate : 46.875 FPS (1024 SPF)
Compression mode : Lossy
Delay relative to video : -21 ms
Title : AAC 6 ch, 48 kHz ~448 kbps - Original
Language : English
Default : No
Forced : No
Statistics Tags Issue : mkvmerge v21.0.0 ('Tardigrades Will Inherit The Earth') 64-bit 2018-03-10 18:23:37 / mkvmerge v21.0.0 ('Tardigrades Will Inherit The Earth') 64-bit 2018-03-10 18:23:37 / UTC 2018-03-10T02:08:00Z
FromStats_BitRate : 447240
FromStats_Duration : 01:21:09.866000000
FromStats_FrameCount : 228275
FromStats_StreamSize : 272250193
Text #1
ID : 5
Format : ASS
Codec ID : S_TEXT/ASS
Codec ID/Info : Advanced Sub Station Alpha
Compression mode : Lossless
Language : Russian
Default : No
Forced : No
Statistics Tags Issue : mkvmerge v21.0.0 ('Tardigrades Will Inherit The Earth') 64-bit 2018-03-10 18:23:37 / mkvmerge v21.0.0 ('Tardigrades Will Inherit The Earth') 64-bit 2018-03-10 18:23:37 / UTC 2018-03-10T02:08:00Z
FromStats_BitRate : 115
FromStats_Duration : 01:16:46.831000000
FromStats_FrameCount : 848
FromStats_StreamSize : 66467
Text #2
ID : 6
Format : ASS
Codec ID : S_TEXT/ASS
Codec ID/Info : Advanced Sub Station Alpha
Compression mode : Lossless
Language : English
Default : No
Forced : No
Statistics Tags Issue : mkvmerge v21.0.0 ('Tardigrades Will Inherit The Earth') 64-bit 2018-03-10 18:23:37 / mkvmerge v21.0.0 ('Tardigrades Will Inherit The Earth') 64-bit 2018-03-10 18:23:37 / UTC 2018-03-10T02:08:00Z
FromStats_BitRate : 84
FromStats_Duration : 01:20:31.285000000
FromStats_FrameCount : 992
FromStats_StreamSize : 50808
Menu
00:00:00.000 : :Chapter 1
00:05:49.558 : :Chapter 2
00:12:04.766 : :Chapter 3
00:15:52.743 : :Chapter 4
00:21:34.919 : :Chapter 5
00:26:13.655 : :Chapter 6
00:31:02.110 : :Chapter 7
00:35:51.274 : :Chapter 8
00:41:51.384 : :Chapter 9
00:48:38.916 : :Chapter 10
00:53:17.653 : :Chapter 11
00:58:53.238 : :Chapter 12
01:02:25.158 : :Chapter 13
01:06:47.712 : :Chapter 14
01:12:42.984 : :Chapter 15
01:17:07.873 : :Chapter 16

Release was prepared by RG Cinema

[toptorrent.pw].t5618.torrent
 GOLD TORRENT! DOWNLOAD TRAFFIC DOES NOT CONSIDER! 
Вечный
Torrent: Registered [ 2019-02-19 04:53 ] · B0440ECBACA230975C3A880D4654E8F0961488AF

Download .torrent

Download

55 KB

Status: checked
Completed: 0 times
Size: 21.6 GB
Rate: 
(Vote: 3)
Has thanked: 3  Thanks   (List)
terms.php


Last edited by _Deimos_ on 2019-02-20 17:42; edited 2 times in total

_Kratos_

Gender: Male

Longevity: 1 year 3 months

Posts: 411

Карма: 25339 [+]

Location: Навои

Наличие запрета:

[Profile] [PM]

Post 19-Feb-2019 11:42 (after 6 hours)

[Quote]

_Deimos_, Ух мой любимый ужастик,спасибо за коллекцию) и оформление как всегда на высоте!+5))

_Deimos_ ®

VIP пользователь

Gender: Male

Longevity: 1 year 3 months

Posts: 323

Карма: 33000 [+]

Location: Топторрент

Наличие запрета:

[Profile] [PM]

Post 19-Feb-2019 13:08 (after 1 hour 25 minutes)

[Quote]

_Kratos_, Спасибо ответный плюс 5)
Display posts:    
Reply to topic

Current time is: 26-May 07:53

All times are UTC + 5



You cannot post new topics in this forum
You cannot reply to topics in this forum
You cannot edit your posts in this forum
You cannot delete your posts in this forum
You cannot vote in polls in this forum
You cannot attach files in this forum
You can download files in this forum