Ходячие мертвецы / The Walking Dead / Сезон 9 / Серии 1-10 из 16 (Эрнест Р. Дикерсон, Билл Джирхарт, Гай Ферленд) [2018, ужасы, фантастика, триллер, драма, WEB-DLRip] MVO (Jaskier)

Reply to topic
DL-List and Torrent activity
Size:  5.62 GB   |    Registered:  3 months 7 days   |    Completed:  0 times

Seeder not seen: 1 month 10 days

 
 
 
 
Author Message

NuRKHoNoFF ®

Gender: Male

Longevity: 1 year 2 months

Posts: 130

Карма: 177 [+]

Location: UzOnline

Наличие запрета:

[Profile] [PM]

Post 19-Feb-2019 05:25

[Quote]

☠ Ходячие мертвецы ☠ / ☠ The Walking Dead ☠ -Название: Ходячие мертвецы
Оригинальное название: The Walking Dead
Год выхода: 2018
Жанр: ужасы, триллер, драма, приключения-Режиссер: Эрнест Р. Дикерсон, Билл Джирхарт, Гай Ферленд-В ролях: Эндрю Линкольн, Сара Уэйн Кэллис, Лори Холден, Стивен Юн, Чендлер Риггз, Норман Ридус, Айрон Э. Синглтон, Мелисса Сюзанн МакБрайд, Лорен Коэн, Джон Бернтал и др.-Описание: Сериал рассказывает историю жизни семьи шерифа после того, как «зомби» — эпидемия апокалиптических масштабов захлестнула земной шар. Шериф Рик Граймс путешествует со своей семьей и небольшой группой выживших в поисках безопасного места для жизни. Но постоянный страх смерти каждый день приносит тяжелые потери, заставляя героев почувствовать глубины человеческой жестокости. Рик пытается спасти свою семью, и открывает для себя, что всепоглощающий страх тех, кто выжил, может быть опаснее бессмысленных мертвецов, бродящих по земле.- -Страна: США
Продолжительность: ~ 00:43:00 серия
Перевод: Профессиональный (многоголосый, закадровый) - Jaskier-Кодек: | XviD | AVI |
Качество: WEB-DLRip
Видео: ~ 1400 kbps, 720x400
Аудио RU: MP3, 2 ch, 128 kbps
Аудио EN: MP3, 2 ch, 128 kbps
Субтитры: отсутствуют
Присутствует аудио-реклама!-
Переведено и озвучено студией Jaskier
General
Complete name : C:\Фильмы 2017\TWD. Season 9 (WEB-DLRip l 400p l Jaskier)\The.Walking.Dead.S09E01.WEB-DLRip.Rus.Eng.Jaskier.avi
Format : AVI
Format/Info : Audio Video Interleave
File size : 701 MiB
Duration : 58 min 34 s
Overall bit rate : 1 673 kb/s
Writing application : VirtualDubMod 1.5.10.3 | www.virtualdub-fr.org || (build 2550/release)
Writing library : VirtualDubMod build 2550/release
Video
ID : 0
Format : MPEG-4 Visual
Format profile : Advanced Simple@L5
Format settings : BVOP1 / Custom Matrix
Format settings, BVOP : 1
Format settings, QPel : No
Format settings, GMC : No warppoints
Format settings, Matrix : Custom
Codec ID : XVID
Codec ID/Hint : XviD
Duration : 58 min 34 s
Bit rate : 1 403 kb/s
Width : 720 pixels
Height : 400 pixels
Display aspect ratio : 16:9
Frame rate : 23.976 (24000/1001) FPS
Original frame rate : 23.976 (23976/1000) FPS
Color space : YUV
Chroma subsampling : 4:2:0
Bit depth : 8 bits
Scan type : Progressive
Compression mode : Lossy
Bits/(Pixel*Frame) : 0.203
Stream size : 588 MiB (84%)
Writing library : XviD 73
Audio #1
ID : 1
Format : MPEG Audio
Format version : Version 1
Format profile : Layer 3
Format settings : Joint stereo / MS Stereo
Codec ID : 55
Codec ID/Hint : MP3
Duration : 58 min 34 s
Bit rate mode : Constant
Bit rate : 128 kb/s
Channel(s) : 2 channels
Sampling rate : 48.0 kHz
Compression mode : Lossy
Stream size : 53.6 MiB (8%)
Alignment : Aligned on interleaves
Interleave, duration : 42 ms (1.00 video frame)
Interleave, preload duratio : 504 ms
Audio #2
ID : 2
Format : MPEG Audio
Format version : Version 1
Format profile : Layer 3
Format settings : Joint stereo / MS Stereo
Codec ID : 55
Codec ID/Hint : MP3
Duration : 58 min 34 s
Bit rate mode : Constant
Bit rate : 128 kb/s
Channel(s) : 2 channels
Sampling rate : 48.0 kHz
Compression mode : Lossy
Stream size : 53.6 MiB (8%)
Alignment : Aligned on interleaves
Interleave, duration : 42 ms (1.00 video frame)
Interleave, preload duratio : 504 ms
Когда раздача ведётся путём добавления новых серий, при каждом добавлении создётся новый торрент. Чтобы начать докачку новой серии, пользователям необходимо сделать следующее:
(1) остановить скачивание,
(2) удалить старый торрент у себя из клиента (старые серии удалять не надо),
(3) скачать новый торрент и запустить его у себя в клиенте вместо старого, при этом указать клиенту путь в старую папку, куда и должно происходить скачивание новых серий.
Ваш клиент при этом должен произвести хеширование (проверку) старой папки (если не производит сам - помогите ему сделать это), и будет докачивать только те серии, которых у вас ещё нет. Старые серии при этом не удаляются, а продолжают раздаваться!
Eсли вы уже удалили старые серии, то предотвратить повторную закачку старых серий можно, отжав галочку в соответсвующих местах при запуске нового торрента. По возможности, желательно не удалять старые серии как можно дольше, чтобы релизёр не столько продолжал раздавать старые серии, а смог сконцентрироваться на новых.

If your ratio falls below 0.3, you will not be able to download Torrents! More about the rating.

[toptorrent.pw].t5619.torrent
Torrent: Registered [ 2019-02-19 05:35 ] · 8A8690760D27A597542723AA7158D08BA8A7D1A5

Download .torrent

Download

30 KB

Status: T temporary
Completed: 0 times
Size: 5.62 GB
Rate: 
(Vote: 3)
Has thanked: 2  Thanks   (List)
terms.php

NuRKHoNoFF ®

Gender: Male

Longevity: 1 year 2 months

Posts: 130

Карма: 177 [+]

Location: UzOnline

Наличие запрета:

[Profile] [PM]

Post 19-Feb-2019 05:36 (after 11 minutes)

[Quote]

Добавлена +10 серия! 
Display posts:    
Reply to topic

Current time is: 26-May 08:29

All times are UTC + 5



You cannot post new topics in this forum
You cannot reply to topics in this forum
You cannot edit your posts in this forum
You cannot delete your posts in this forum
You cannot vote in polls in this forum
You cannot attach files in this forum
You can download files in this forum