Смертельная поездка / Ryde or Die (Эльгин Кехилл / Elgin Cahill) [2018 г., ужасы, триллер, WEB-DL 720p, Р]

Ответить на тему
Статистика раздачи
Размер:  1,88 GB   |    Зарегистрирован:  1 месяц   |    Скачан:  0 раз
Сидов:  4  [  0 KB/s  ]   Подробная статистика пиров
   
 
Автор Сообщение

NuRKHoNoFF ®

Пол: Мужской

Стаж: 11 месяцев 27 дней

Сообщений: 130

Карма: 172 [+]

Откуда: UzOnline

Наличие запрета:

[Профиль] [ЛС]

Создавать темы 19-Фев-2019 19:38

[Цитировать]

Смертельная поездка / Ryde or Die -Год выпуска: 2018
Страна: США
Жанр: ужасы, триллер
Продолжительность: 00:48:15
Перевод: Профессиональный (многоголосый) ["Синема УС"]-Режиссер: Эльгин Кехилл / Elgin Cahill-В ролях: Джо Босиан, Рон Буркхардт, Стеван Карсон, Джазз Коуплэнд, Скотт Краушор, Амира Гриффин, Энди Хэнкинс, Бен Джонсон, Ладиос Мухаммед, Сайлас Мвенда-Описание: Водитель убера пытается пережить самую ужасную ночь в своей жизни после того, как подбирает клиента, оказавшегося безжалостным убийцей с собственным извращенным моральным кодексом.- -Качество: WEB-DL 720p (Реклама)
Формат: MKV
Видео: AVC, 5181 kb/s, 1280x720, 23.976 FPS
Аудио: AC3, 384 kb/s (2 ch), 48 кГц-
General
Unique ID : 198025782118831695594509916276426738662 (0x94FA60DBD46B98B69FF6468AB3030BE6)
Complete name : D:\Комьпютер\Фильмы 2017\Ryde.or.Die.2018.P.WEB-DL.72Op.mkv
Format : Matroska
Format version : Version 2
File size : 1.88 GiB
Duration : 48 min 15 s
Overall bit rate mode : Variable
Overall bit rate : 5 567 kb/s
Encoded date : UTC 2019-02-19 11:56:32
Writing application : mkvmerge v8.3.0 ('Over the Horizon') 64bit
Writing library : libebml v1.3.1 + libmatroska v1.4.2
Video
ID : 1
Format : AVC
Format/Info : Advanced Video Codec
Format profile : High@L4.1
Format settings : CABAC / 4 Ref Frames
Format settings, CABAC : Yes
Format settings, ReFrames : 4 frames
Codec ID : V_MPEG4/ISO/AVC
Duration : 48 min 15 s
Bit rate mode : Variable
Bit rate : 5 181 kb/s
Maximum bit rate : 6 000 kb/s
Width : 1 280 pixels
Height : 720 pixels
Display aspect ratio : 16:9
Frame rate mode : Constant
Frame rate : 23.976 (24000/1001) FPS
Standard : Component
Color space : YUV
Chroma subsampling : 4:2:0
Bit depth : 8 bits
Scan type : Progressive
Bits/(Pixel*Frame) : 0.230
Stream size : 1.71 GiB (91%)
Default : Yes
Forced : No
Color range : Limited
Color primaries : BT.709
Transfer characteristics : BT.709
Matrix coefficients : BT.709
Audio
ID : 2
Format : AC-3
Format/Info : Audio Coding 3
Codec ID : A_AC3
Duration : 48 min 15 s
Bit rate mode : Constant
Bit rate : 384 kb/s
Channel(s) : 2 channels
Channel positions : Front: L R
Sampling rate : 48.0 kHz
Frame rate : 31.250 FPS (1536 SPF)
Bit depth : 16 bits
Compression mode : Lossy
Stream size : 133 MiB (7%)
Service kind : Complete Main
Default : Yes
Forced : No

Если ваш рейтинг упадет ниже 0,3, вы не сможете скачивать торренты! Подробнее о рейтинге.

[toptorrent.pw].t5620.torrent
Торрент: Зарегистрирован [ 2019-02-19 19:38 ] · 501541A2027F50EA260855EA9B4E43E0B735B664

Скачать .torrent

Скачать

19 KB

Статус: проверено
Скачан: 0 раз
Размер: 1,88 GB
Оценка: 
(Голосов: 2)
Поблагодарили: 2  Спасибо   (список)
terms.php
Показать сообщения:    
Ответить на тему

Текущее время: 19-Мар 20:46

Часовой пояс: UTC + 5



Вы не можете начинать темы
Вы не можете отвечать на сообщения
Вы не можете редактировать свои сообщения
Вы не можете удалять свои сообщения
Вы не можете голосовать в опросах
Вы не можете прикреплять файлы к сообщениям
Вы можете скачивать файлы