Роковой патруль / Doom Patrol / Сезон: 1 / Серии: 1-10 из 13 (Крис Мэнли, Салли Ричардсон-Уитфилд, Глен Винтер) [2019, Драма, Фантастика, Боевик, WEB-DLRip] (MVO : LostFilm)

Reply to topic
DL-List and Torrent activity
Size:  5.34 GB   |    Registered:  3 days   |    Completed:  0 times
Seeders:  1  [  0 KB/s  ]   Show peers in full details
 
 
 
 
Author Message

.:Mercury:. ®

Gender: Male

Longevity: 1 year 2 months

Posts: 3007

Карма: 31947 [+]

Наличие запрета:

[Profile] [PM]

Post 20-Feb-2019 13:10

[Quote]

Роковой патруль / Doom Patrol- -Год выпуска: 2019
Страна: США
Жанр: Драма, Фантастика, Боевик
Продолжительность: 1x 00:58:00
Перевод: Профессиональный (многоголосый закадровый)
Доп. инфо о переводе: LostFilm--Режиссёр: Крис Мэнли, Салли Ричардсон-Уитфилд, Глен Винтер--В ролях: Дайан Герерро, Эйприл Боулби, Мэтт Бомер, Тимоти Далтон, Райли Шэнэхэн, Мэттью Зук, Брендан Фрейзер, Алан Тьюдик, Джоиван Уэйд, Кайл Расселл Клементс--Описание: Иногда трагедии обрывают человеческие жизни, а иногда меняют их до неузнаваемости. Так произошло и с Клиффом Стилом (Брендан Фрейзер), лихим раллистом, который попал в страшнейшую автокатастрофу. Весь мир поспешил счесть Стила мертвым, однако доктору Найлзу Колдеру (Тимоти Далтон) удалось спасти мозг гонщика и пересадить его в «тело» робота. Когда Клифф пришел в сознание, он с удивлением обнаружил, что Колдер, он же Шеф, собрал под крышей своего дома целую команду таких же несчастных, как он. Вскоре у профессора, подарившего каждому из них вторую жизнь и суперспособности, появляются опасные враги. И вместо тихого отшельнического образа жизни пятеро уродцев получают возможность проявить свои силы на полную и защитить от всесильных злодеев Шефа, город и все живое..."--Качество видео: WEB-DLRip
Формат: AVI--Видео: Xvid 720x400 23.976fps 1800kbps
Аудио: MP3 48000Hz stereo 187kbps 2ch
Роковой патруль» — второй оригинальный сериал совсем еще юного потокового сервиса DC Universe. Несмотря на свою более чем 50-летнюю историю, команда фрик-супергероев никогда не становилась объектом особого интереса телевизионщиков и смогла появиться на экранах только в одном эпизоде «Титанов». Адаптировал комикс для ТВ Джереми Карвер — один из постоянных сценаристов и продюсеров «Сверхъестественного», а также уже закрытых, но запомнившихся нашим зрителям сериалов «Быть человеком» и «Радиоволна». Продюсерские функции взяли на себя настоящие ударники телепроизводства — Джефф Джонс, написавший большую часть эпизодов «Флэша», и Грег Берланти, разработавший ставшую уже культовой телевселенную «Стрелы». Боссы DC Universe не поскупились и на актерский состав, подписав на главные роли Тимоти Далтона, Эйприл Боулби, Мэтта Бомера и Брендана Фрейзера, что увеличивает шансы шоу о жутких подопечных профессора Найлза Колдера стать главным хитом платформы.
General
Complete name : E:\Doom.Patrol.S01E01.rus.LostFilm.TV.avi
Format : AVI
Format/Info : Audio Video Interleave
File size : 840 MiB
Duration : 58 min 41 s
Overall bit rate mode : Variable
Overall bit rate : 2 000 kb/s
Writing application : Nandub v1.0rc2
Writing library : Nandub build 1853/release
Video
ID : 0
Format : MPEG-4 Visual
Format profile : Advanced Simple@L5
Format settings, BVOP : No
Format settings, QPel : No
Format settings, GMC : No warppoints
Format settings, Matrix : Default (MPEG)
Codec ID : XVID
Codec ID/Hint : XviD
Duration : 58 min 41 s
Bit rate : 1 800 kb/s
Width : 720 pixels
Height : 400 pixels
Display aspect ratio : 16:9
Frame rate : 23.976 (24000/1001) FPS
Original frame rate : 23.976 (23976/1000) FPS
Color space : YUV
Chroma subsampling : 4:2:0
Bit depth : 8 bits
Scan type : Progressive
Compression mode : Lossy
Bits/(Pixel*Frame) : 0.261
Stream size : 756 MiB (90%)
Writing library : XviD 1.2.1 (UTC 2008-12-04)
Audio
ID : 1
Format : MPEG Audio
Format version : Version 1
Format profile : Layer 3
Format settings : Joint stereo
Codec ID : 55
Codec ID/Hint : MP3
Duration : 58 min 40 s
Bit rate mode : Variable
Bit rate : 192 kb/s
Channel(s) : 2 channels
Sampling rate : 48.0 kHz
Frame rate : 41.667 FPS (1152 SPF)
Compression mode : Lossy
Stream size : 78.5 MiB (9%)
Alignment : Aligned on interleaves
Interleave, duration : 24 ms (0.58 video frame)
Interleave, preload duration : 480 ms
Writing library : LAME3.97b
Encoding settings : -m j -V 4 -q 3 -lowpass 18.6 --abr 192

Release was prepared by RG Serials

[toptorrent.pw].t5625.torrent
Torrent: Registered [ 2019-04-22 09:36 ] · B0BAA455FB1FD355D5BED28C14E73FC081125B32

Download .torrent

Download

108 KB

Status: T temporary
Completed: 0 times
Size: 5.34 GB
Rate: 
(Vote: 1)
Has thanked: 2  Thanks   (List)
terms.php


Last edited by .:Mercury:. on 2019-04-22 09:36; edited 8 times in total

.:Mercury:. ®

Gender: Male

Longevity: 1 year 2 months

Posts: 3007

Карма: 31947 [+]

Наличие запрета:

[Profile] [PM]

Post 26-Feb-2019 07:29 (after 5 days)

[Quote]

+2-я серия

.:Mercury:. ®

Gender: Male

Longevity: 1 year 2 months

Posts: 3007

Карма: 31947 [+]

Наличие запрета:

[Profile] [PM]

Post 04-Mar-2019 01:01 (after 5 days)

[Quote]

+3-я серия

.:Mercury:. ®

Gender: Male

Longevity: 1 year 2 months

Posts: 3007

Карма: 31947 [+]

Наличие запрета:

[Profile] [PM]

Post 19-Mar-2019 16:29 (after 15 days)

[Quote]

+4-я и 5-я серия

.:Mercury:. ®

Gender: Male

Longevity: 1 year 2 months

Posts: 3007

Карма: 31947 [+]

Наличие запрета:

[Profile] [PM]

Post 25-Mar-2019 00:21 (after 5 days)

[Quote]

+6-я серия

.:Mercury:. ®

Gender: Male

Longevity: 1 year 2 months

Posts: 3007

Карма: 31947 [+]

Наличие запрета:

[Profile] [PM]

Post 31-Mar-2019 22:31 (after 6 days)

[Quote]

+7-я серия

.:Mercury:. ®

Gender: Male

Longevity: 1 year 2 months

Posts: 3007

Карма: 31947 [+]

Наличие запрета:

[Profile] [PM]

Post 08-Apr-2019 04:19 (after 7 days)

[Quote]

+8-я серия

.:Mercury:. ®

Gender: Male

Longevity: 1 year 2 months

Posts: 3007

Карма: 31947 [+]

Наличие запрета:

[Profile] [PM]

Post 15-Apr-2019 18:37 (after 7 days)

[Quote]

+9-я серия

.:Mercury:. ®

Gender: Male

Longevity: 1 year 2 months

Posts: 3007

Карма: 31947 [+]

Наличие запрета:

[Profile] [PM]

Post 22-Apr-2019 09:37 (after 6 days)

[Quote]

+10-я серия
Display posts:    
Reply to topic

Current time is: 26-Apr 01:27

All times are UTC + 5



You cannot post new topics in this forum
You cannot reply to topics in this forum
You cannot edit your posts in this forum
You cannot delete your posts in this forum
You cannot vote in polls in this forum
You cannot attach files in this forum
You can download files in this forum