Ральф против интернета / Ralph Breaks the Internet (Фил Джонстон, Рич Мур / Phill Johnston, Rich Moore) [2018 г., мультфильм, фэнтези, комедия, приключения, семейный, HDRip-AVC] iTunes

Ответить на тему
Статистика раздачи
Размер:  746 MB   |    Зарегистрирован:  27 дней   |    Скачан:  0 раз
Сидов:  1  [  0 KB/s  ]   Подробная статистика пиров
 
 
 
 
Автор Сообщение

NuRKHoNoFF ®

Пол: Мужской

Стаж: 11 месяцев 27 дней

Сообщений: 130

Карма: 172 [+]

Откуда: UzOnline

Наличие запрета:

[Профиль] [ЛС]

Создавать темы 20-Фев-2019 16:47

[Цитировать]

Ральф против интернета / Ralph Breaks the Internet -Год выпуска: 2018
Страна: США
Жанр: мультфильм, фэнтези, комедия, приключения, семейный
Продолжительность: 01:52:31
Перевод: Дублированный | [iTunes]-Субтитры: Русские (Forced, full), английские-Режиссер: Фил Джонстон, Рич Мур-В ролях: Джон Си Райли, Сара Силверман, Галь Гадот, Тараджи П. Хенсон, Джек МакБрайер, Джейн Линч, Алан Тьюдик, Альфред Молина, Эд О Нил, Шон Джамброун-Описание: Ральф и Пенелопа уже лучшие друзья. События, произошедшие в родной стране Пенелопы раз и навсегда изменили как Ральфа, так и его мир. Теперь у него есть друзья. Он все тот же громила, который все рушит, но теперь не злой, а добрый. Изучая просторы игры автомата, главные герои натыкаются на обновление, которые происходит с помощью компьютерного устройства. Это обновление чудесным образом переносит Ральфа и его подружку в страну Интернета. Это бескрайний мир простор, здесь много интересного, в то же время и опасного. Ральф начинает покорять Интернет. Проходя уровень за уровнем, громила находит новых друзей, а из-за своей неуклюжести наживает и врагов. Возможно Интернет и не вынесет такого громилу..- -Качество: HDRip-AVC
Формат: MKV
Видео: MPEG-4 AVC, 784x328, - 849 Кбит/с
Аудио: AAC-HE, 2 ch, - 76 Кбит/с-
General
Unique ID : 202290363525618111768659619884104216198 (0x982FB4F49CE76FCF8A1196371430EE86)
Complete name : D:\Комьпютер\Фильмы 2017\Ralf.proniv.interneta.2018.HDRip-AVC.ExKinoRay.mkv
Format : Matroska
Format version : Version 4 / Version 2
File size : 746 MiB
Duration : 1 h 52 min
Overall bit rate : 927 kb/s
Encoded date : UTC 2019-02-18 04:28:02
Writing application : mkvmerge v15.0.0 ('Duel with the Devil') 64-bit
Writing library : libebml v1.3.5 + libmatroska v1.4.5
Video
ID : 1
Format : AVC
Format/Info : Advanced Video Codec
Format profile : High@L4.1
Format settings : CABAC / 12 Ref Frames
Format settings, CABAC : Yes
Format settings, ReFrames : 12 frames
Codec ID : V_MPEG4/ISO/AVC
Duration : 1 h 52 min
Bit rate : 849 kb/s
Width : 784 pixels
Height : 328 pixels
Display aspect ratio : 2.40:1
Frame rate mode : Constant
Frame rate : 23.976 (24000/1001) FPS
Color space : YUV
Chroma subsampling : 4:2:0
Bit depth : 8 bits
Scan type : Progressive
Bits/(Pixel*Frame) : 0.138
Stream size : 683 MiB (92%)
Writing library : x264 core 152 r2851kMod ba24899
Encoding settings : cabac=1 / ref=12 / deblock=1:-3:-3 / analyse=0x3:0x133 / me=umh / subme=10 / psy=1 / fade_compensate=0.00 / psy_rd=1.00:0.15 / mixed_ref=1 / me_range=32 / chroma_me=1 / trellis=2 / 8x8dct=1 / cqm=0 / deadzone=21,11 / fast_pskip=0 / chroma_qp_offset=-3 / threads=6 / lookahead_threads=1 / sliced_threads=0 / nr=0 / decimate=0 / interlaced=0 / bluray_compat=0 / constrained_intra=0 / bframes=12 / b_pyramid=2 / b_adapt=2 / b_bias=0 / direct=3 / weightb=1 / open_gop=0 / weightp=2 / keyint=240 / keyint_min=23 / scenecut=40 / intra_refresh=0 / rc_lookahead=40 / rc=2pass / mbtree=1 / bitrate=849 / ratetol=1.0 / qcomp=0.60 / qpmin=0 / qpmax=69 / qpstep=4 / cplxblur=20.0 / qblur=0.5 / ip_ratio=1.40 / aq=3:1.00
Default : Yes
Forced : No
Audio
ID : 2
Format : AAC
Format/Info : Advanced Audio Codec
Format profile : HE-AAC / LC
Format settings : Explicit
Codec ID : A_AAC-2
Duration : 1 h 52 min
Bit rate : 76.0 kb/s
Channel(s) : 2 channels
Channel positions : Front: L R
Sampling rate : 48.0 kHz / 24.0 kHz
Frame rate : 23.438 FPS (1024 SPF)
Compression mode : Lossy
Delay relative to video : 31 ms
Stream size : 61.2 MiB (8%)
Language : Russian
Default : Yes
Forced : No
Text #1
ID : 3
Format : UTF-8
Codec ID : S_TEXT/UTF8
Codec ID/Info : UTF-8 Plain Text
Duration : 1 h 41 min
Bit rate : 2 b/s
Count of elements : 46
Stream size : 1.56 KiB (0%)
Title : Forced
Language : Russian
Default : Yes
Forced : Yes
Text #2
ID : 4
Format : UTF-8
Codec ID : S_TEXT/UTF8
Codec ID/Info : UTF-8 Plain Text
Duration : 1 h 51 min
Bit rate : 122 b/s
Count of elements : 1877
Stream size : 101 KiB (0%)
Title : Full
Language : Russian
Default : No
Forced : No
Text #3
ID : 5
Format : UTF-8
Codec ID : S_TEXT/UTF8
Codec ID/Info : UTF-8 Plain Text
Duration : 1 h 51 min
Bit rate : 77 b/s
Count of elements : 1886
Stream size : 63.1 KiB (0%)
Title : Full
Language : English
Default : No
Forced : No
Text #4
ID : 6
Format : UTF-8
Codec ID : S_TEXT/UTF8
Codec ID/Info : UTF-8 Plain Text
Duration : 1 h 51 min
Bit rate : 90 b/s
Count of elements : 2473
Stream size : 73.8 KiB (0%)
Title : SDH
Language : English
Default : No
Forced : No
Menu
00:00:00.000 : en:00:00:00.000
00:04:09.666 : en:00:04:09.666
00:11:07.417 : en:00:11:07.417
00:17:28.923 : en:00:17:28.923
00:23:43.881 : en:00:23:43.881
00:27:54.589 : en:00:27:54.589
00:34:18.807 : en:00:34:18.807
00:41:39.956 : en:00:41:39.956
00:51:27.709 : en:00:51:27.709
00:58:04.606 : en:00:58:04.606
01:01:50.957 : en:01:01:50.957
01:06:17.306 : en:01:06:17.306
01:12:31.806 : en:01:12:31.806
01:19:10.120 : en:01:19:10.120
01:27:24.030 : en:01:27:24.030
01:38:26.775 : en:01:38:26.775

Если ваш рейтинг упадет ниже 0,3, вы не сможете скачивать торренты! Подробнее о рейтинге.

[toptorrent.pw].t5626.torrent
Торрент: Зарегистрирован [ 2019-02-20 16:47 ] · E3B540D3940682CA17E4F52FF792C8F25CA3A87B

Скачать .torrent

Скачать

15 KB

Статус: проверено
Скачан: 0 раз
Размер: 746 MB
Оценка: 
(Голосов: 2)
Поблагодарили: 2  Спасибо   (список)
terms.php
Показать сообщения:    
Ответить на тему

Текущее время: 19-Мар 19:45

Часовой пояс: UTC + 5



Вы не можете начинать темы
Вы не можете отвечать на сообщения
Вы не можете редактировать свои сообщения
Вы не можете удалять свои сообщения
Вы не можете голосовать в опросах
Вы не можете прикреплять файлы к сообщениям
Вы можете скачивать файлы