Робин Гуд: Начало / Robin Hood (Отто Батхёрст) [2018, Боевик, приключения, BDRip-AVC] DUB [iTunes]

Ответить на тему
Статистика раздачи
Размер:  2,31 GB   |    Зарегистрирован:  24 дня   |    Скачан:  0 раз
Сидов:  1  [  0 KB/s  ]   Подробная статистика пиров
 
 
 
 
Автор Сообщение

_Deimos_ ®

VIP пользователь

Пол: Мужской

Стаж: 1 год 1 месяц

Сообщений: 244

Карма: 33000 [+]

Откуда: Топторрент

Наличие запрета:

[Профиль] [ЛС]

Создавать темы 22-Фев-2019 23:54

[Цитировать]


--
Год выпуска: 2018
Страна: США
Жанр: Боевик, приключения
Продолжительность: 01:56:08
Перевод: Дублированный [iTunes]--Режиссёр: Отто Батхёрст --В ролях: Тэрон Эджертон, Джейми Фокс, Бен Мендельсон, Ив Хьюсон, Джейми Дорнан, Тим Минчин, Пол Андерсон, Ф. Мюррэй Абрахам, Йен Пек, Корнелиус Бут-- : Ветеран Крестовых походов Робин из Локсли и его командир-мавр по возвращении в Англию видят, что родная страна погрязла в коррупции. Вместе они решают изменить положение дел и запускают маховики массовой революции, в центре которой окажется загадочный разбойник.-- Качество: BDRip-AVC
Формат видео: MKV
Видео: H.264, 1024x426, 23.976 fps, 1823 kb/s
Аудио #1: AC3, 48.0 kHz, 6 channels, 384 kb/s [A: DUB [iTunes] [rus]
Аудио #2: AC3, 48.0 kHz, 2 channels, 192 kb/s [A: MVO [HDRezka Studio] [rus]
Аудио #3: AC3, 48.0 kHz, 6 channels, 448 kb/s [A: [Original] [eng]
Cубтитры: Английский
--

Рейтинг фильма --
General
Unique ID : 278298248538790520085381358737070232718 (0xD15E4B04383F7B40956394936644148E)
Complete name : G:\Kino\Robin.Hood.2018.BDRipAVC.mkv
Format : Matroska
Format version : Version 4 / Version 2
File size : 2.31 GiB
Duration : 1 h 56 min
Overall bit rate : 2 844 kb/s
Movie name : Robin.Hood.2018 #TorpedoUK#
Encoded date : UTC 2019-02-21 22:00:51
Writing application : mkvmerge v29.0.0 ('Like It Or Not') 64-bit
Writing library : libebml v1.3.6 + libmatroska v1.4.9
Video
ID : 1
Format : AVC
Format/Info : Advanced Video Codec
Format profile : High@L4.1
Format settings, CABAC : Yes
Format settings, RefFrames : 10 frames
Codec ID : V_MPEG4/ISO/AVC
Duration : 1 h 56 min
Bit rate : 1 823 kb/s
Width : 1 024 pixels
Height : 426 pixels
Display aspect ratio : 2.40:1
Frame rate mode : Constant
Frame rate : 23.976 (24000/1001) FPS
Color space : YUV
Chroma subsampling : 4:2:0
Bit depth : 8 bits
Scan type : Progressive
Bits/(Pixel*Frame) : 0.174
Stream size : 1.48 GiB (64%)
Writing library : x264 core 146 r2538 121396c
Encoding settings : cabac=1 / ref=10 / deblock=1:-3:-3 / analyse=0x3:0x113 / me=umh / subme=11 / psy=1 / psy_rd=0.99:0.04 / mixed_ref=1 / me_range=48 / chroma_me=1 / trellis=2 / 8x8dct=1 / cqm=0 / deadzone=21,11 / fast_pskip=1 / chroma_qp_offset=-3 / threads=6 / lookahead_threads=1 / sliced_threads=0 / nr=0 / decimate=1 / interlaced=0 / bluray_compat=0 / constrained_intra=0 / bframes=11 / b_pyramid=2 / b_adapt=2 / b_bias=0 / direct=3 / weightb=1 / open_gop=0 / weightp=2 / keyint=240 / keyint_min=23 / scenecut=40 / intra_refresh=0 / rc_lookahead=40 / rc=2pass / mbtree=0 / bitrate=1823 / ratetol=1.0 / qcomp=0.60 / qpmin=0 / qpmax=69 / qpstep=4 / cplxblur=20.0 / qblur=0.5 / vbv_maxrate=50000 / vbv_bufsize=62500 / nal_hrd=none / filler=0 / ip_ratio=1.40 / pb_ratio=1.30 / aq=1:1.00
Language : English
Default : Yes
Forced : No
Audio #1
ID : 2
Format : AC-3
Format/Info : Audio Coding 3
Format settings, Endianness : Big
Codec ID : A_AC3
Duration : 1 h 56 min
Bit rate mode : Constant
Bit rate : 384 kb/s
Channel(s) : 6 channels
Channel positions : Front: L C R, Side: L R, LFE
Sampling rate : 48.0 kHz
Frame rate : 31.250 FPS (1536 SPF)
Bit depth : 16 bits
Compression mode : Lossy
Stream size : 319 MiB (14%)
Title : DUB [iTunes]
Language : Russian
Service kind : Complete Main
Default : Yes
Forced : No
Audio #2
ID : 3
Format : AC-3
Format/Info : Audio Coding 3
Format settings, Endianness : Big
Codec ID : A_AC3
Duration : 1 h 56 min
Bit rate mode : Constant
Bit rate : 192 kb/s
Channel(s) : 2 channels
Channel positions : Front: L R
Sampling rate : 48.0 kHz
Frame rate : 31.250 FPS (1536 SPF)
Bit depth : 16 bits
Compression mode : Lossy
Stream size : 159 MiB (7%)
Title : MVO [HDRezka Studio]
Language : Russian
Service kind : Complete Main
Default : No
Forced : No
Audio #3
ID : 4
Format : AC-3
Format/Info : Audio Coding 3
Format settings, Endianness : Big
Codec ID : A_AC3
Duration : 1 h 56 min
Bit rate mode : Constant
Bit rate : 448 kb/s
Channel(s) : 6 channels
Channel positions : Front: L C R, Side: L R, LFE
Sampling rate : 48.0 kHz
Frame rate : 31.250 FPS (1536 SPF)
Bit depth : 16 bits
Compression mode : Lossy
Stream size : 372 MiB (16%)
Title : [Original]
Language : English
Service kind : Complete Main
Default : No
Forced : No
Text #1
ID : 5
Format : UTF-8
Codec ID : S_TEXT/UTF8
Codec ID/Info : UTF-8 Plain Text
Duration : 1 h 44 min
Bit rate : 48 b/s
Count of elements : 1360
Stream size : 37.0 KiB (0%)
Title : Full
Language : English
Default : No
Forced : No
Text #2
ID : 6
Format : UTF-8
Codec ID : S_TEXT/UTF8
Codec ID/Info : UTF-8 Plain Text
Duration : 1 h 46 min
Bit rate : 53 b/s
Count of elements : 1599
Stream size : 41.7 KiB (0%)
Title : SDH
Language : English
Default : No
Forced : No
Menu
00:00:00.000 : :Глава 01
00:05:36.336 : :Глава 02
00:15:27.217 : :Глава 03
00:24:02.274 : :Глава 04
00:28:35.046 : :Глава 05
00:35:03.976 : :Глава 06
00:43:38.073 : :Глава 07
00:49:34.346 : :Глава 08
00:58:16.409 : :Глава 09
01:04:07.051 : :Глава 10
01:10:30.434 : :Глава 11
01:21:29.259 : :Глава 12
01:28:08.407 : :Глава 13
01:37:32.513 : :Глава 14
01:41:49.686 : :Глава 15
01:44:48.532 : :Глава 16

Релиз подготовлен RG Cinema

Если ваш рейтинг упадет ниже 0,3, вы не сможете скачивать торренты! Подробнее о рейтинге.

[toptorrent.pw].t5632.torrent
Торрент: Зарегистрирован [ 2019-02-22 23:54 ] · C98BF526C28F1B96C3A80A7EC35769102F6EA172

Скачать .torrent

Скачать

12 KB

Статус: проверено
Скачан: 0 раз
Размер: 2,31 GB
Оценка: 
(Голосов: 1)
Поблагодарили: 3  Спасибо   (список)
terms.php
Показать сообщения:    
Ответить на тему

Текущее время: 19-Мар 19:52

Часовой пояс: UTC + 5



Вы не можете начинать темы
Вы не можете отвечать на сообщения
Вы не можете редактировать свои сообщения
Вы не можете удалять свои сообщения
Вы не можете голосовать в опросах
Вы не можете прикреплять файлы к сообщениям
Вы можете скачивать файлы