Астрал: Новое измерение / Astral (Крис Мул / Chris Mul) [2018 г., Ужасы, фантастика, триллер, драма, WEB-DLRip-AVC] iTunes

Ответить на тему
Статистика раздачи
Размер:  1,52 GB   |    Зарегистрирован:  24 дня   |    Скачан:  1 раз
Сидов:  11  [  0 KB/s  ]   Подробная статистика пиров
   
 
Автор Сообщение

NuRKHoNoFF ®

Пол: Мужской

Стаж: 11 месяцев 27 дней

Сообщений: 130

Карма: 172 [+]

Откуда: UzOnline

Наличие запрета:

[Профиль] [ЛС]

Создавать темы 23-Фев-2019 06:41

[Цитировать]

Астрал: Новое измерение / Astral -Год выпуска: 2018
Страна: Великобритания
Жанр: Ужасы, фантастика, триллер, драма
Продолжительность: 01:23:24
Перевод: Дублированный | [iTunes]-Субтитры: Английские (полные)-Режиссер: Крис Мул-В ролях: Фрэнк Диллэйн, Катрин Стэдмен, Ванесса Грасс, Демсон Идрис, Тревор Уайт, Дарвин Шоу, Нед Портеус, Марк Аикен, Джульетт Хоуланд, Дженнифер Брук, Дауд Шах-Описание: Когда Алекс был маленьким, его мать, только выйдя из психиатрической клиники, повесилась у себя дома. Студентом парень изучает астральное тело и пытается практиковать астральную проекцию, чтобы связаться с погибшей матерью.- -Качество: WEB-DLRip-AVC
Формат: MKV
Видео: 1024x420 (2.40:1), 23,976 fps, x264 ~1 844 kbps avg, 0.179 bit/pixel
Аудио:#1 48 kHz, AC3 Dolby Digital, 3/2 (L,C,R,l,r) + LFE ch, ~384.00 kbps avg | RUS (iTunes)
Аудио:#2 48 kHz, AC3 Dolby Digital, 3/2 (L,C,R,l,r) + LFE ch, ~384.00 kbps avg | ENG-
General
Unique ID : 209765583213118966670178483978166700596 (0x9DCF61BDB932D895843EDEB0AA318A34)
Complete name : D:\Комьпютер\Фильмы 2017\Astral.2018.WEB-DLRip(AVC).OlLanDGroup.mkv
Format : Matroska
Format version : Version 4 / Version 2
File size : 1.52 GiB
Duration : 1 h 23 min
Overall bit rate : 2 614 kb/s
Movie name : Astral.2018 #TorpedoUK#
Encoded date : UTC 2019-02-22 16:59:28
Writing application : mkvmerge v29.0.0 ('Like It Or Not') 64-bit
Writing library : libebml v1.3.6 + libmatroska v1.4.9
Video
ID : 1
Format : AVC
Format/Info : Advanced Video Codec
Format profile : High@L4.1
Format settings : CABAC / 10 Ref Frames
Format settings, CABAC : Yes
Format settings, ReFrames : 10 frames
Codec ID : V_MPEG4/ISO/AVC
Duration : 1 h 23 min
Bit rate : 1 844 kb/s
Width : 1 024 pixels
Height : 420 pixels
Display aspect ratio : 2.40:1
Frame rate mode : Constant
Frame rate : 23.976 (24000/1001) FPS
Color space : YUV
Chroma subsampling : 4:2:0
Bit depth : 8 bits
Scan type : Progressive
Bits/(Pixel*Frame) : 0.179
Stream size : 1.07 GiB (71%)
Writing library : x264 core 146 r2538 121396c
Encoding settings : cabac=1 / ref=10 / deblock=1:-3:-3 / analyse=0x3:0x113 / me=umh / subme=10 / psy=1 / psy_rd=0.97:0.05 / mixed_ref=1 / me_range=48 / chroma_me=1 / trellis=2 / 8x8dct=1 / cqm=0 / deadzone=21,11 / fast_pskip=1 / chroma_qp_offset=-3 / threads=6 / lookahead_threads=1 / sliced_threads=0 / nr=0 / decimate=1 / interlaced=0 / bluray_compat=0 / constrained_intra=0 / bframes=11 / b_pyramid=2 / b_adapt=2 / b_bias=0 / direct=3 / weightb=1 / open_gop=0 / weightp=2 / keyint=240 / keyint_min=23 / scenecut=40 / intra_refresh=0 / rc_lookahead=40 / rc=2pass / mbtree=0 / bitrate=1844 / ratetol=1.0 / qcomp=0.60 / qpmin=0 / qpmax=69 / qpstep=4 / cplxblur=20.0 / qblur=0.5 / vbv_maxrate=50000 / vbv_bufsize=62500 / nal_hrd=none / filler=0 / ip_ratio=1.40 / pb_ratio=1.30 / aq=1:1.00
Language : English
Default : Yes
Forced : No
Audio #1
ID : 2
Format : AC-3
Format/Info : Audio Coding 3
Codec ID : A_AC3
Duration : 1 h 23 min
Bit rate mode : Constant
Bit rate : 384 kb/s
Channel(s) : 6 channels
Channel positions : Front: L C R, Side: L R, LFE
Sampling rate : 48.0 kHz
Frame rate : 31.250 FPS (1536 SPF)
Bit depth : 16 bits
Compression mode : Lossy
Stream size : 229 MiB (15%)
Title : DUB [iTunes]
Language : Russian
Service kind : Complete Main
Default : Yes
Forced : No
Audio #2
ID : 3
Format : AC-3
Format/Info : Audio Coding 3
Codec ID : A_AC3
Duration : 1 h 23 min
Bit rate mode : Constant
Bit rate : 384 kb/s
Channel(s) : 6 channels
Channel positions : Front: L C R, Side: L R, LFE
Sampling rate : 48.0 kHz
Frame rate : 31.250 FPS (1536 SPF)
Bit depth : 16 bits
Compression mode : Lossy
Stream size : 229 MiB (15%)
Title : [Original]
Language : English
Service kind : Complete Main
Default : No
Forced : No
Text
ID : 4
Format : UTF-8
Codec ID : S_TEXT/UTF8
Codec ID/Info : UTF-8 Plain Text
Duration : 1 h 19 min
Bit rate : 41 b/s
Count of elements : 684
Stream size : 24.2 KiB (0%)
Title : Full
Language : English
Default : No
Forced : No
Menu
00:00:00.000 : en:1
00:07:22.000 : en:2
00:12:50.000 : en:3
00:17:56.000 : en:4
00:23:09.000 : en:5
00:28:25.000 : en:6
00:34:09.000 : en:7
00:40:56.000 : en:8
00:46:23.000 : en:9
00:53:07.000 : en:10
00:58:55.000 : en:11
01:04:06.000 : en:12
01:07:31.000 : en:13
01:14:09.000 : en:14
01:17:50.000 : en:15
01:20:25.000 : en:16

[toptorrent.pw].t5635.torrent
Торрент: Зарегистрирован [ 2019-02-23 06:46 ] · 2C53DA28B57CADEBD5733880DFD920BA1F7EF161

Скачать .torrent

Скачать

16 KB

Статус: проверено
Скачан: 1 раз
Размер: 1,52 GB
Оценка: 
(Голосов: 2)
Поблагодарили: 1  Спасибо   (список)
terms.php
Показать сообщения:    
Ответить на тему

Текущее время: 19-Мар 10:31

Часовой пояс: UTC + 5



Вы не можете начинать темы
Вы не можете отвечать на сообщения
Вы не можете редактировать свои сообщения
Вы не можете удалять свои сообщения
Вы не можете голосовать в опросах
Вы не можете прикреплять файлы к сообщениям
Вы можете скачивать файлы