Фагот (Борис Гуц) [2018 г., Комедия, WEB-DLRip-AVC от ExKinoRay] iTunes

Ответить на тему
Статистика раздачи
Размер:  899 MB   |    Зарегистрирован:  24 дня   |    Скачан:  0 раз
Сидов:  1  [  0 KB/s  ]   Личеров:  1  [  0 KB/s  ]   Подробная статистика пиров
 
 
 
 
Автор Сообщение

NuRKHoNoFF ®

Пол: Мужской

Стаж: 11 месяцев 27 дней

Сообщений: 130

Карма: 172 [+]

Откуда: UzOnline

Наличие запрета:

[Профиль] [ЛС]

Создавать темы 23-Фев-2019 08:33

[Цитировать]

Фагот- Год выпуска: 2018
Страна: Россия
Жанр: Комедия
Продолжительность: 01:00:26
Перевод: Оригинал [iTunes]-Режиссер: Борис Гуц-В ролях: Анастасия Пронина, Юлия Ауг, Ольга Кавалай-Аксенова, Александр Дривень, Анна Даукаева и др.-Описание: Как расстаться с ревнивой девушкой? А если она еще и редкостная стерва? Максим не знает, ведь он «хочет, чтобы всем было хорошо». Пока мама и старшая сестра сыплют бесполезными советами, Максим придумывает самый абсурдный предлог для разрыва, который приводит к катастрофичным последствиям… Фильм целиком был снят на смартфон iPhone 7 Plus и камеру GoPro. Съемки заняли 4 дня.
- -Качество: WEB-DLRip-AVC
Формат: MKV
Видео: 1024x428 (16:9), 25.000 fps, MPEG-4 AVC 1883 kbps avg, 0.172 bit/pixel
Аудио: AC3, 2/0 ch, 192 Кбит/сек, CBR, 48,0 КГц
-
General
Unique ID : 221669301003571412961306405631164457979 (0xA6C3F45730AFAC768425A2420DA0A3FB)
Complete name : C:\Фильмы 2017\Fagot.2018.WEBD-LRip.AVC.ExKinoRay.mkv
Format : Matroska
Format version : Version 2
File size : 899 MiB
Duration : 1 h 0 min
Overall bit rate : 2 080 kb/s
Movie name : Fagot 2018 from ExKinoRay
Encoded date : UTC 2019-01-07 20:23:42
Writing application : mkvmerge v5.6.0 ('Kenya Kane') built on May 27 2012 16:44:04
Writing library : libebml v1.2.3 + libmatroska v1.3.0
Video
ID : 1
Format : AVC
Format/Info : Advanced Video Codec
Format profile : High@L4.1
Format settings : CABAC / 12 Ref Frames
Format settings, CABAC : Yes
Format settings, ReFrames : 12 frames
Codec ID : V_MPEG4/ISO/AVC
Duration : 1 h 0 min
Bit rate : 1 883 kb/s
Width : 1 024 pixels
Height : 428 pixels
Display aspect ratio : 2.40:1
Frame rate mode : Constant
Frame rate : 25.000 FPS
Color space : YUV
Chroma subsampling : 4:2:0
Bit depth : 8 bits
Scan type : Progressive
Bits/(Pixel*Frame) : 0.172
Stream size : 798 MiB (89%)
Title : Enigma
Writing library : x264 core 152 r2851 ba24899
Encoding settings : cabac=1 / ref=12 / deblock=1:-2:-2 / analyse=0x3:0x113 / me=umh / subme=10 / psy=1 / psy_rd=1.05:0.10 / mixed_ref=1 / me_range=32 / chroma_me=1 / trellis=2 / 8x8dct=1 / cqm=0 / deadzone=21,11 / fast_pskip=0 / chroma_qp_offset=-3 / threads=12 / lookahead_threads=2 / sliced_threads=0 / nr=0 / decimate=0 / interlaced=0 / bluray_compat=0 / constrained_intra=0 / bframes=9 / b_pyramid=2 / b_adapt=2 / b_bias=0 / direct=3 / weightb=1 / open_gop=0 / weightp=2 / keyint=250 / keyint_min=25 / scenecut=40 / intra_refresh=0 / rc=2pass / mbtree=0 / bitrate=1883 / ratetol=1.0 / qcomp=0.60 / qpmin=0 / qpmax=51 / qpstep=4 / cplxblur=20.0 / qblur=0.5 / ip_ratio=1.30 / pb_ratio=1.20 / aq=1:1.00
Language : English
Default : Yes
Forced : No
Color range : Limited
Color primaries : BT.709
Transfer characteristics : BT.709
Matrix coefficients : BT.709
Audio
ID : 2
Format : AC-3
Format/Info : Audio Coding 3
Codec ID : A_AC3
Duration : 1 h 0 min
Bit rate mode : Constant
Bit rate : 192 kb/s
Channel(s) : 2 channels
Channel positions : Front: L R
Sampling rate : 48.0 kHz
Frame rate : 31.250 FPS (1536 SPF)
Bit depth : 16 bits
Compression mode : Lossy
Stream size : 83.0 MiB (9%)
Language : Russian
Service kind : Complete Main
Default : Yes
Forced : No
Menu
00:00:00.000 : en:Глава 1
00:01:24.480 : en:Глава 2
00:07:08.720 : en:Глава 3
00:11:51.520 : en:Глава 4
00:17:40.800 : en:Глава 5
00:24:31.400 : en:Глава 6
00:29:59.840 : en:Глава 7
00:34:02.320 : en:Глава 8
00:39:55.840 : en:Глава 9
00:45:07.880 : en:Глава 10
00:51:58.320 : en:Глава 11

Если ваш рейтинг упадет ниже 0,3, вы не сможете скачивать торренты! Подробнее о рейтинге.

[toptorrent.pw].t5637.torrent
Торрент: Зарегистрирован [ 2019-02-23 08:33 ] · 224949745168B3592672FB95EBBFFB564C8934AC

Скачать .torrent

Скачать

18 KB

Статус: проверено
Скачан: 0 раз
Размер: 899 MB
Оценка: 
(Голосов: 2)
Поблагодарили: 3  Спасибо   (список)
terms.php
Показать сообщения:    
Ответить на тему

Текущее время: 19-Мар 19:43

Часовой пояс: UTC + 5



Вы не можете начинать темы
Вы не можете отвечать на сообщения
Вы не можете редактировать свои сообщения
Вы не можете удалять свои сообщения
Вы не можете голосовать в опросах
Вы не можете прикреплять файлы к сообщениям
Вы можете скачивать файлы