Зелёная книга / Green Book (Питер Фаррелли / Peter Farrelly) [2018 г., Драма, комедия, биография, WEB-DLRip] iTunes ТОП 250 KP 88; IMDb 127

Ответить на тему
Статистика раздачи
Размер:  1,46 GB   |    Зарегистрирован:  22 дня   |    Скачан:  1 раз
Сидов:  48  [  0 KB/s  ]   Подробная статистика пиров
   
 
Автор Сообщение

NuRKHoNoFF ®

Пол: Мужской

Стаж: 11 месяцев

Сообщений: 130

Карма: 172 [+]

Откуда: UzOnline

Наличие запрета:

[Профиль] [ЛС]

Создавать темы 27-Фев-2019 04:41

[Цитировать]

Зелёная книга / Green Book -Год выпуска: 2018
Страна: США
Жанр: Драма, комедия, биография
Продолжительность: 02:10:05
Перевод: Дублированный | [iTunes] -Режиссер: Питер Фаррелли-В ролях: Вигго Мортенсен, Махершала Али, Линда Карделлини, Себастьян Манискалко, Димитар Маринов, Майк Хаттон, П.Дж. Бирн, Джозеф Кортезе, Мэгги Никсон, Фон Льюис-Описание: Утонченный светский лев, богатый и талантливый музыкант нанимает в качестве водителя и телохранителя человека, который менее всего подходит для этой работы. Тони «Болтун» - вышибала, не умеющий держать рот на замке и пользоваться столовыми приборами, зато он хорошо работает кулаками. Это турне навсегда изменит жизнь обоих.- -Качество: WEB-DLRip
Формат: AVI
Видео: XviD, 704x352, 23.976 fps, 1405 kbps
Аудио: AC3, 2 ch, 192 Кбит/с-
General
Complete name : D:\Комьпютер\Фильмы 2017\Green.Book.2018.WEB-DLRip.1.46Gb.D.MegaPeer.avi
Format : AVI
Format/Info : Audio Video Interleave
File size : 1.46 GiB
Duration : 2 h 10 min
Overall bit rate : 1 607 kb/s
Writing application : VirtualDubMod 1.5.10.3 | www.virtualdub-fr.org || (build 2550/release)
Writing library : VirtualDubMod build 2550/release
IsTruncated : Yes
Video
ID : 0
Format : MPEG-4 Visual
Format profile : Advanced Simple@L5
Format settings : BVOP1 / Custom Matrix
Format settings, BVOP : 1
Format settings, QPel : No
Format settings, GMC : No warppoints
Format settings, Matrix : Custom
Codec ID : XVID
Codec ID/Hint : XviD
Duration : 2 h 10 min
Bit rate : 1 405 kb/s
Width : 704 pixels
Height : 352 pixels
Display aspect ratio : 2.000
Frame rate : 23.976 (24000/1001) FPS
Color space : YUV
Chroma subsampling : 4:2:0
Bit depth : 8 bits
Scan type : Progressive
Compression mode : Lossy
Bits/(Pixel*Frame) : 0.226
Stream size : 1.22 GiB (84%)
Writing library : XviD 73
Audio
ID : 1
Format : AC-3
Format/Info : Audio Coding 3
Codec ID : 2000
Duration : 2 h 10 min
Bit rate mode : Constant
Bit rate : 192 kb/s
Channel(s) : 2 channels
Channel positions : Front: L R
Sampling rate : 48.0 kHz
Frame rate : 31.250 FPS (1536 SPF)
Bit depth : 16 bits
Compression mode : Lossy
Stream size : 179 MiB (12%)
Alignment : Split accross interleaves
Service kind : Complete Main

[toptorrent.pw].t5652.torrent
 ЗОЛОТАЯ РАЗДАЧА! СКАЧАННОЕ НЕ ЗАСЧИТЫВАЕТСЯ! 
Вечный
Торрент: Зарегистрирован [ 2019-02-27 04:41 ] · 8B4E7BAD9F6EFAC0A5C9D20BDBA11DAB6ADA8E3C

Скачать .torrent

Скачать

15 KB

Статус: проверено
Скачан: 1 раз
Размер: 1,46 GB
Оценка: 
(Голосов: 3)
Поблагодарили: 2  Спасибо   (список)
terms.php

 

Создавать темы 27-Фев-2019 05:02 (спустя 21 минута)

Топик был перенесен из форума Зарубежные Кинофильмы за 2018 в форум IMDB TOP250
_Deimos_
Показать сообщения:    
Ответить на тему

Текущее время: 21-Мар 14:30

Часовой пояс: UTC + 5



Вы не можете начинать темы
Вы не можете отвечать на сообщения
Вы не можете редактировать свои сообщения
Вы не можете удалять свои сообщения
Вы не можете голосовать в опросах
Вы не можете прикреплять файлы к сообщениям
Вы можете скачивать файлы