Тьма в Гаване / Havana Darkness (Гильермо Иван / Guillermo Ivan) [2019 г., триллер, WEB-DLRip, Р]

Ответить на тему
 
Автор Сообщение

NuRKHoNoFF ®

Пол: Мужской

Стаж: 11 месяцев 27 дней

Сообщений: 130

Карма: 172 [+]

Откуда: UzOnline

Наличие запрета:

[Профиль] [ЛС]

Создавать темы 27-Фев-2019 04:44

[Цитировать]

Тьма в Гаване / Havana Darkness -Год выпуска: 2019
Страна: США
Жанр: триллер
Продолжительность: 01:25:40
Перевод: Любительский (многоголосый) ["Синема УС"]-Режиссер: Гильермо Иван-В ролях: Каролина Равасса, Гильермо Иван, Джек Димич, Монте Безелл, Ханна Д. Скотт, Зэк Роуз, Заир Монтес, Лорис Курчи, Питер Перейра, Идальмис Гарсия-Описание: Изучая происхождение таинственной рукописи, якобы написанной самим Эрнестом Хемингуэем, трое друзей оказываются запертыми в внутри заброшенного здания, расположенного в самом центре Гаваны. Для того, чтобы найти выход из здания, им придется пройти сквозь лабиринт, напичканный смертельными ловушками. К тому же, кто-то пытается играть с ними в «кошки-мышки», не оставляя времени на раздумье.--Качество: WEB-DLRip (Реклама)
Формат: AVI
Видео: XviD, 1890 Кбит/с, 720x304
Аудио: AC3, 2 ch, 384 Кбит/с-
General
Complete name : D:\Комьпютер\Фильмы 2017\Havana.Darkness.2019.P.WEB-DLRip.14OOMB.avi
Format : AVI
Format/Info : Audio Video Interleave
File size : 1.37 GiB
Duration : 1 h 25 min
Overall bit rate : 2 284 kb/s
Writing application : VirtualDubMod 1.5.10.2 (build 2540/release)
Writing library : VirtualDubMod build 2540/release
IsTruncated : Yes
Video
ID : 0
Format : MPEG-4 Visual
Format profile : Advanced Simple@L5
Format settings : BVOP2 / Custom Matrix
Format settings, BVOP : 2
Format settings, QPel : No
Format settings, GMC : No warppoints
Format settings, Matrix : Custom
Codec ID : XVID
Codec ID/Hint : XviD
Duration : 1 h 25 min
Bit rate : 1 890 kb/s
Width : 720 pixels
Height : 304 pixels
Display aspect ratio : 2.35:1
Frame rate : 23.976 (24000/1001) FPS
Color space : YUV
Chroma subsampling : 4:2:0
Bit depth : 8 bits
Scan type : Progressive
Compression mode : Lossy
Bits/(Pixel*Frame) : 0.343
Stream size : 1.08 GiB (79%)
Writing library : XviD 1.2.1 (UTC 2008-12-04)
Audio
ID : 1
Format : AC-3
Format/Info : Audio Coding 3
Codec ID : 2000
Duration : 1 h 25 min
Bit rate mode : Constant
Bit rate : 384 kb/s
Channel(s) : 2 channels
Channel positions : Front: L R
Sampling rate : 48.0 kHz
Frame rate : 31.250 FPS (1536 SPF)
Bit depth : 16 bits
Compression mode : Lossy
Stream size : 235 MiB (17%)
Alignment : Split accross interleaves
Service kind : Complete Main

Показать сообщения:    
Ответить на тему

Текущее время: 19-Мар 20:14

Часовой пояс: UTC + 5



Вы не можете начинать темы
Вы не можете отвечать на сообщения
Вы не можете редактировать свои сообщения
Вы не можете удалять свои сообщения
Вы не можете голосовать в опросах
Вы не можете прикреплять файлы к сообщениям
Вы не можете скачивать файлы