Виски Кавалер / Whiskey Cavalier / Сезон: 1 / Серии: 1-3 из 13 (Питер Атенсио, Джон Ист, Ромео Тироне) [2019, Драма, Комедия, Боевик, Детектив, WEB-DLRip] (MVO : LostFilm)

Ответить на тему
Статистика раздачи
Размер:  1,65 GB   |    Зарегистрирован:  3 дня   |    Скачан:  0 раз
Сидов:  9  [  0 KB/s  ]   Подробная статистика пиров
   
 
Автор Сообщение

.:Mercury:. ®

VIP пользователь

Пол: Мужской

Стаж: 1 год 1 месяц

Сообщений: 2821

Карма: 31947 [+]

Наличие запрета:

[Профиль] [ЛС]

Создавать темы 01-Мар-2019 08:34

[Цитировать]

Виски Кавалер / Whiskey Cavalier
- -Год выпуска: 2019
Страна: США
Жанр: Драма, Комедия, Боевик, Детектив
Тип: Шпионы, Преступники, Процедурал
Продолжительность: ~00:43:00 серия
Перевод: Профессиональный (многоголосый закадровый)
Доп. инфо о переводе: LostFilm--Режиссёр: Питер Атенсио, Джон Ист, Ромео Тироне--В ролях: Скотт Фоули (Will Chase), Лорен Кохэн (Frankie Trowbridge), Ана Ортис (Susan Samson), Тайлер Джеймс Уильямс (Edgar Standish), Вир Дас (Jai Datta), Дилан Уолш (Alex Ollerman), Джош Хопкинс (Ray Prince), Дэвид Финн (Todd), Кристос Василопулос (Marco), Аликс Бенезек (General Costa Mistress), Alena Doláková (Simona Borisova), Ядран Малжкович (Eddie Benson)--Описание: Агента ФБР Уилла Кейза (Скотт Фоули) недавно бросила невеста. На какое-то время он вышел из строя, сидел дома с бутылкой крепкого и в голосину орал душераздирающие слезливые песни, но пришло время взять себя в руки и вернуться на работу, ведь мировая преступность не дремлет. Чтобы доказать начальнику свою профпригодность, Уилл берется за очередное запутанное дело, но внезапно на его пути встает наглая, хоть и невероятно сексапильная девица. Оказывается, Франческа Троубридж — агент ЦРУ, и она мало того что совершенно не воспринимает его всерьез, так еще и пытается перетянуть одеяло на себя. Но скоро станет еще веселее, ведь этой паре придется объединиться в команду и вступить в захватывающий бой с русскими мафиози и прочими криминальными элементами самого крупного калибра. Смогут ли привлекательный агент ФБР и чертовски привлекательный агент ЦРУ преодолеть возникшие между ними профессиональные разногласия и спасти мир столько раз, сколько им прикажут их боссы, в невыносимых условиях, когда от важных дел их то и дело отвлекают летающие между ними искры сексуального напряжения?--Качество видео: WEB-DLRip
Формат: AVI-Видео: Xvid 720x400 23.976fps 1721kbps
Аудио: MP3 48000Hz stereo 187kbps 2ch
«Виски Кавалер» — это приключенческая драма с элементами комедии, повествующая о двух высококлассных агентах спецслужб, которые, несмотря на свои маленькие слабости и беспокойных личных демонов, все же умудряются выполнять самые сложные миссии. За созданием сериала стоит Дэвид Хемингсон, работавший над шоу «Обмани меня» и «Как я встретил вашу маму», а съемками руководили Питер Атенсио («Жан-Клод Ван Джонсон»), Джон Ист («Убивая Еву»), Ромео Тироне («Декстер») и другие талантливые постановщики. По духу «Виски Кавалер» напоминает франшизу о Джеймсе Бонде, если бы она была комедийной и с двумя агентами, один из которых — женщина, но при этом оба хотят быть важнее и круче коллеги. Перестрелки, взрывы, погони и эффектные трюки перемежаются здесь язвительными репликами главных героев, остроумными комментариями второплановых героев и многочисленными шутками на грани фола, которые отлично сбивают лишний пафос и добавляют истории жизни и динамики. Главные роли в новинке канала ABC исполняют Скотт Фоули («Крик 3», «Город хищниц») и звезда «Ходячих мертвецов» Лорен Коэн.
General
Complete name : E:\Whiskey.Cavalier.S01E01.rus.LostFilm.TV.avi
Format : AVI
Format/Info : Audio Video Interleave
File size : 595 MiB
Duration : 43 min 15 s
Overall bit rate mode : Variable
Overall bit rate : 1 922 kb/s
Writing application : Nandub v1.0rc2
Writing library : Nandub build 1853/release
Video
ID : 0
Format : MPEG-4 Visual
Format profile : Advanced Simple@L5
Format settings, BVOP : No
Format settings, QPel : No
Format settings, GMC : No warppoints
Format settings, Matrix : Default (MPEG)
Codec ID : XVID
Codec ID/Hint : XviD
Duration : 43 min 15 s
Bit rate : 1 722 kb/s
Width : 720 pixels
Height : 400 pixels
Display aspect ratio : 16:9
Frame rate : 23.976 (24000/1001) FPS
Original frame rate : 23.976 (23976/1000) FPS
Color space : YUV
Chroma subsampling : 4:2:0
Bit depth : 8 bits
Scan type : Progressive
Compression mode : Lossy
Bits/(Pixel*Frame) : 0.249
Stream size : 533 MiB (90%)
Writing library : XviD 1.2.1 (UTC 2008-12-04)
Audio
ID : 1
Format : MPEG Audio
Format version : Version 1
Format profile : Layer 3
Format settings : Joint stereo
Codec ID : 55
Codec ID/Hint : MP3
Duration : 43 min 15 s
Bit rate mode : Variable
Bit rate : 192 kb/s
Channel(s) : 2 channels
Sampling rate : 48.0 kHz
Frame rate : 41.667 FPS (1152 SPF)
Compression mode : Lossy
Stream size : 58.0 MiB (10%)
Alignment : Aligned on interleaves
Interleave, duration : 24 ms (0.58 video frame)
Interleave, preload duration : 487 ms
Writing library : LAME3.97b
Encoding settings : -m j -V 4 -q 3 -lowpass 18.6 --abr 192

Релиз подготовлен RG Serials

Если ваш рейтинг упадет ниже 0,3, вы не сможете скачивать торренты! Подробнее о рейтинге.

[toptorrent.pw].t5656.torrent
Торрент: Зарегистрирован [ 2019-03-16 10:51 ] · DBC842E887BE37F110C0762B3AF9C0B461B08857

Скачать .torrent

Скачать

17 KB

Статус: T временная
Скачан: 0 раз
Размер: 1,65 GB
Оценка: 
(Голосов: 2)
Поблагодарили: 2  Спасибо   (список)
terms.php


Последний раз редактировалось: .:Mercury:. (2019-03-16 10:51), всего редактировалось 1 раз

.:Mercury:. ®

VIP пользователь

Пол: Мужской

Стаж: 1 год 1 месяц

Сообщений: 2821

Карма: 31947 [+]

Наличие запрета:

[Профиль] [ЛС]

Создавать темы 09-Мар-2019 16:09 (спустя 8 дней)

[Цитировать]

+2-я серия

.:Mercury:. ®

VIP пользователь

Пол: Мужской

Стаж: 1 год 1 месяц

Сообщений: 2821

Карма: 31947 [+]

Наличие запрета:

[Профиль] [ЛС]

Создавать темы 16-Мар-2019 10:51 (спустя 6 дней)

[Цитировать]

+3-я серия
Показать сообщения:    
Ответить на тему

Текущее время: 19-Мар 19:45

Часовой пояс: UTC + 5



Вы не можете начинать темы
Вы не можете отвечать на сообщения
Вы не можете редактировать свои сообщения
Вы не можете удалять свои сообщения
Вы не можете голосовать в опросах
Вы не можете прикреплять файлы к сообщениям
Вы можете скачивать файлы