Приключения Аладдина / Alad'2 (Лайонел Стекти) [2018, Комедия, BDRip] DUB [iTunes]

Reply to topic
DL-List and Torrent activity
Size:  1.42 GB   |    Registered:  2 months 21 day   |    Completed:  0 times
Seeders:  1  [  0 KB/s  ]   Show peers in full details
 
 
 
 
Author Message

_Deimos_ ®

VIP пользователь

Gender: Male

Longevity: 1 year 3 months

Posts: 322

Карма: 33000 [+]

Location: Топторрент

Наличие запрета:

[Profile] [PM]

Post 01-Mar-2019 10:36

[Quote]

Приключения Аладдина- --Год выпуска: 2018
Страна: Франция
Жанр: Комедия
Продолжительность: 01:37:51
Перевод: Дублированный [iTunes]--Режиссёр: Лайонел Стекти--В ролях: Кев Адамс, Жамель Деббуз, Ванесса Гуид, Эрик Жюдор, Рамзи Бедиа, Вахид Бузиди, Ноэми Ленуар, Микаэль Коэн, Фатсах Буяхмед, Жерар Депардьё-- : А что бывает после «и жили они долго и счастливо»? На пороге Дворца в волшебном Багдаде, где проводят время Аладдин и Принцесса, появляется ужасный и опасный Диктатор. Чтобы избавиться от незваного гостя и не потерять Принцессу, Аладдину придется вновь окунуться в мир приключений и опасностей: пролететь на ковре-самолёте полмира, разыскать Волшебную лампу, своего приятеля Джинна и уже вместе с ним сразиться с Диктатором.-- Качество: BDRip
Формат видео: AVI
Видео: Xvid, 720x304, 23.976 fps, 1680 kb/s
Аудио: AC3, 48.0 kHz, 6 channels, 384 kb/s--

Рейтинг фильма --
General
Complete name : G:\Kino\Alad.2.2018.BDRip.avi
Format : AVI
Format/Info : Audio Video Interleave
File size : 1.42 GiB
Duration : 1 h 37 min
Overall bit rate : 2 073 kb/s
Writing application : VirtualDubMod 1.5.10.3 | www.virtualdub-fr.org || (build 2550/release)
Writing library : VirtualDubMod build 2550/release
Video
ID : 0
Format : MPEG-4 Visual
Format profile : Advanced Simple@L5
Format settings, BVOP : 1
Format settings, QPel : No
Format settings, GMC : No warppoints
Format settings, Matrix : Custom
Codec ID : XVID
Codec ID/Hint : XviD
Duration : 1 h 37 min
Bit rate : 1 680 kb/s
Width : 720 pixels
Height : 304 pixels
Display aspect ratio : 2.35:1
Frame rate : 23.976 (24000/1001) FPS
Color space : YUV
Chroma subsampling : 4:2:0
Bit depth : 8 bits
Scan type : Progressive
Compression mode : Lossy
Bits/(Pixel*Frame) : 0.320
Stream size : 1.15 GiB (81%)
Writing library : XviD 73
Audio
ID : 1
Format : AC-3
Format/Info : Audio Coding 3
Format settings, Endianness : Big
Codec ID : 2000
Duration : 1 h 37 min
Bit rate mode : Constant
Bit rate : 384 kb/s
Channel(s) : 6 channels
Channel positions : Front: L C R, Side: L R, LFE
Sampling rate : 48.0 kHz
Frame rate : 31.250 FPS (1536 SPF)
Bit depth : 16 bits
Compression mode : Lossy
Stream size : 269 MiB (19%)
Alignment : Split accross interleaves
Interleave, duration : 42 ms (1.00 video frame)
Interleave, preload duration : 500 ms
Service kind : Complete Main

Release was prepared by RG Cinema

If your ratio falls below 0.3, you will not be able to download Torrents! More about the rating.

[toptorrent.pw].t5657.torrent
Torrent: Registered [ 2019-03-01 10:36 ] · 3DBCD8AB67324D6E133123AC67F087A93AB9DFA8

Download .torrent

Download

15 KB

Status: checked
Completed: 0 times
Size: 1.42 GB
Rate: 
(Vote: 2)
Has thanked: 2  Thanks   (List)
terms.php
Display posts:    
Reply to topic

Current time is: 23-May 04:42

All times are UTC + 5



You cannot post new topics in this forum
You cannot reply to topics in this forum
You cannot edit your posts in this forum
You cannot delete your posts in this forum
You cannot vote in polls in this forum
You cannot attach files in this forum
You can download files in this forum