Петросян-шоу-27 (Эфир 15.02.2019) [2019г., Юмор, SATRip]

Ответить на тему
Статистика раздачи
Размер:  1,34 GB   |    Зарегистрирован:  19 дней   |    Скачан:  0 раз
Сидов:  3  [  0 KB/s  ]   Подробная статистика пиров
   
 
Автор Сообщение

фазилов ®

Пол: Мужской

Стаж: 1 год 1 месяц

Сообщений: 400

Карма: 4558 [+]

Откуда: Таш-море

Наличие запрета:

[Профиль] [ЛС]

Создавать темы 02-Мар-2019 09:37

[Цитировать]

(ЭФИР 15.02.2019) Год выпуска: 2019
Страна: Россия
Жанр: Юмор
Продолжительность: 01:35:59
Описание: На телеканале "Россия" - новое яркое юмористическое "Петросян-шоу"! (Старое название передачи- "Кривое зеркало")
Мэтр эстрады выступит в роли не только артиста, но и ведущего программы. На сцене - любимые артисты и новые исполнители.
Как говорит сам Петросян, "эта передача, которую делают десятки людей, прежде всего, для хорошего настроения зрителей. Есть, конечно, и потаенная идея – попытка "толкнуть" жанр на новый виток развития, взбудоражить творческую фантазию, дать дорогу молодежи, если она откликнется, узнав о нашем шоу".
Смотрите в этом выпуске:

1. Е.Петросян - Счастье; Энергия радости
2. Артисты "Петросян-шоу" - На пляже
3. Р.Селецкий - Звёздные диеты
4. Лалока(Е.Егорова)
5. Е.Петросян - Фольклор
6. М.Иванов и А.Сосина - Романтическая Франция
7. М.Смирнов и Н.Бандурин - Черти
8. О.Руднева и О.Невежина - Мозаика
9. М.Вашуков - куплеты "Без тебя"
10. А.Егоров - Бермуды
11. Артисты "Петросян-шоу" - Родительское собрание
Качество: SATRip
Формат: AVI

Видео кодек: XviD
Аудио кодек: AC3

Видео: 720х400 (1.80:1), 25 fps, XviD build 50 ~1800 kbps avg, 0.25 bit/pixel
Аудио: 48 kHz, AC3 Dolby Digital, 2/0 (L,R) ch, ~192 kbps

Общее
Полное имя : E:\Мои релизы-2\Петросян-шоу-27. Эфир 15.02.2019.avi
Формат : AVI
Формат/Информация : Audio Video Interleave
Размер файла : 1,34 Гбайт
Продолжительность : 1 ч. 35 м.
Общий поток : 2002 Кбит/сек
Программа кодирования : VirtualDubMod 1.5.10.3 | www.virtualdub-fr.org || (build 2550/release)
Библиотека кодирования : VirtualDubMod build 2550/release
Видео
Идентификатор : 0
Формат : MPEG-4 Visual
Профиль формата : Advanced Simple@L5
Параметр BVOP формата : 2
Параметр QPel формата : Нет
Параметр GMC формата : Без точки перехода
Параметр матрицы формата : Default (H.263)
Идентификатор кодека : XVID
Идентификатор кодека/Подсказка : XviD
Продолжительность : 1 ч. 35 м.
Битрейт : 1800 Кбит/сек
Ширина : 720 пикселей
Высота : 400 пикселей
Соотношение сторон : 16:9
Частота кадров : 25,000 кадров/сек
Цветовое пространство : YUV
Субдискретизация насыщенности : 4:2:0
Битовая глубина : 8 бит
Тип развёртки : Прогрессивная
Метод сжатия : С потерями
Бит/(Пиксели*Кадры) : 0.250
Размер потока : 1,21 Гбайт (90%)
Библиотека кодирования : XviD 1.2.1 (UTC 2008-12-04)
Аудио
Идентификатор : 1
Формат : AC-3
Формат/Информация : Audio Coding 3
Расширение режима : CM (complete main)
Параметр Endianness формата : Big
Идентификатор кодека : 2000
Продолжительность : 1 ч. 35 м.
Вид битрейта : Постоянный
Битрейт : 192 Кбит/сек
Каналы : 2 канала
Расположение каналов : Front: L R
Частота : 48,0 КГц
Частота кадров : 31,250 кадров/сек (1536 spf)
Битовая глубина : 16 бит
Метод сжатия : С потерями
Размер потока : 132 Мбайт (10%)
Выравнивание : Разделение по промежуткам
Продолжительность промежутка : 40 мс. (1,00 видеокадр)
Время предзагрузки промежутка : 500 мс.
Релиз подготовлен группой Мои релизы

Если ваш рейтинг упадет ниже 0,3, вы не сможете скачивать торренты! Подробнее о рейтинге.

[toptorrent.pw].t5662.torrent
Торрент: Зарегистрирован [ 2019-03-02 09:37 ] · 2C88B1DBBD2FA00ACD82D9C5C46BDCBD65B7FF2C

Скачать .torrent

Скачать

14 KB

Статус: проверено
Скачан: 0 раз
Размер: 1,34 GB
Оценка: 
(Голосов: 2)
Поблагодарили: 1  Спасибо   (список)
terms.php
Показать сообщения:    
Ответить на тему

Текущее время: 21-Мар 14:43

Часовой пояс: UTC + 5



Вы не можете начинать темы
Вы не можете отвечать на сообщения
Вы не можете редактировать свои сообщения
Вы не можете удалять свои сообщения
Вы не можете голосовать в опросах
Вы не можете прикреплять файлы к сообщениям
Вы можете скачивать файлы