Чистота / Pure / Сезон: 1 / Серии: 1-6 из 6 (Энейл Кария, Алисия МакДональд) [2019, Черная комедия, HDTVRip] (MVO : NewStudio)

Ответить на тему
Статистика раздачи
Размер:  2,05 GB   |    Зарегистрирован:  10 дней   |    Скачан:  0 раз

Полного источника не было: 1 день 17 часов

 
 
 
 
Автор Сообщение

.:Mercury:. ®

VIP пользователь

Пол: Мужской

Стаж: 1 год 1 месяц

Сообщений: 2821

Карма: 31947 [+]

Наличие запрета:

[Профиль] [ЛС]

Создавать темы 06-Мар-2019 15:31

[Цитировать]

Чистота / Pure- -Год выпуска: 2019
Страна: Великобритания, Channel4
Жанр: Черная комедия
Продолжительность: ~00:33:00
Перевод: Профессиональный (многоголосый закадровый)
Доп. инфо о переводе: NewStudio--Режиссёр: Энейл Кария, Алисия МакДональд--В ролях: Чарли Клайв, Киран Соня Савар, Джо Коул, Ниам Алгар, Энтони Уэльс, Дун Макичен, Джин Лу, Tori Allen-Martin, Eleanor Fanyinka, Сэмюэл Эдвард-Кук--Описание: Дела у Марни не в порядке. Последние 3672 дня при встрече с новыми людьми в ее голове возникают сексуальные сцены и образы с участием этих людей, и она не знает, почему они одолевают ее и портят ей жизнь. С полным непониманием своего недуга Марни запрыгивает в автобус, идущий в Лондон, где она собирается начать совершенно новую жизнь.--Качество видео: HDTVRip
Формат: AVI-Видео: Xvid 720x400 25fps 1163kbps
Аудио: MPEG-1 Audio layer 3, 129 kbps (CBR), 48.0 KHz, 2 ch | Rus, Eng
Рекомендован просмотр лицам старше 18-ти лет
General
Complete name : E:\Pure.UK.s01.HDTVRip.NewStudio.TV\Pure.UK.s01e01.HDTVRip.NewStudio.TV.avi
Format : AVI
Format/Info : Audio Video Interleave
File size : 350 MiB
Duration : 34 min 9 s
Overall bit rate : 1 434 kb/s
Writing application : VirtualDubMod 1.5.10.2 (build 2540/release)
Writing library : VirtualDubMod build 2540/release
Video
ID : 0
Format : MPEG-4 Visual
Format profile : Advanced Simple@L5
Format settings : BVOP2
Format settings, BVOP : 2
Format settings, QPel : No
Format settings, GMC : No warppoints
Format settings, Matrix : Default (MPEG)
Muxing mode : Packed bitstream
Codec ID : XVID
Codec ID/Hint : XviD
Duration : 34 min 9 s
Bit rate : 1 163 kb/s
Width : 720 pixels
Height : 400 pixels
Display aspect ratio : 16:9
Frame rate : 25.000 FPS
Color space : YUV
Chroma subsampling : 4:2:0
Bit depth : 8 bits
Scan type : Progressive
Compression mode : Lossy
Bits/(Pixel*Frame) : 0.162
Stream size : 284 MiB (81%)
Writing library : XviD 67
Audio #1
ID : 1
Format : MPEG Audio
Format version : Version 1
Format profile : Layer 3
Format settings : Joint stereo / MS Stereo
Codec ID : 55
Codec ID/Hint : MP3
Duration : 34 min 9 s
Bit rate mode : Constant
Bit rate : 128 kb/s
Channel(s) : 2 channels
Sampling rate : 48.0 kHz
Compression mode : Lossy
Stream size : 31.3 MiB (9%)
Alignment : Aligned on interleaves
Interleave, duration : 40 ms (1.00 video frame)
Interleave, preload duration : 504 ms
Audio #2
ID : 2
Format : MPEG Audio
Format version : Version 1
Format profile : Layer 3
Format settings : Joint stereo / MS Stereo
Codec ID : 55
Codec ID/Hint : MP3
Duration : 34 min 9 s
Bit rate mode : Constant
Bit rate : 128 kb/s
Channel(s) : 2 channels
Sampling rate : 48.0 kHz
Frame rate : 41.667 FPS (1152 SPF)
Compression mode : Lossy
Stream size : 31.3 MiB (9%)
Alignment : Aligned on interleaves
Interleave, duration : 40 ms (1.00 video frame)
Interleave, preload duration : 504 ms
Writing library : LAME3.100
Encoding settings : -m j -V 4 -q 2 -lowpass 17 -b 128

Релиз подготовлен RG Serials

Если ваш рейтинг упадет ниже 0,3, вы не сможете скачивать торренты! Подробнее о рейтинге.

[toptorrent.pw].t5672.torrent
Торрент: Зарегистрирован [ 2019-03-09 07:17 ] · 7DBA2A0AE45F1AB113569AD19C2C239DF08C6EFB

Скачать .torrent

Скачать

11 KB

Статус: проверено
Скачан: 0 раз
Размер: 2,05 GB
Оценка: 
(Голосов: 1)
Поблагодарили: 1  Спасибо   (список)
terms.php
Показать сообщения:    
Ответить на тему

Текущее время: 19-Мар 20:27

Часовой пояс: UTC + 5



Вы не можете начинать темы
Вы не можете отвечать на сообщения
Вы не можете редактировать свои сообщения
Вы не можете удалять свои сообщения
Вы не можете голосовать в опросах
Вы не можете прикреплять файлы к сообщениям
Вы можете скачивать файлы