Чужая среди своих (Враг внутри) / The Enemy Within / Сезон: 1 / Серии: 1-3 из 6 (Марк Пеллингтон) [2019, Драма, WEB-DLRip] (MVO : NewStudio)

Ответить на тему
Статистика раздачи
Размер:  1,61 GB   |    Зарегистрирован:  1 час 45 минут   |    Скачан:  0 раз
Сидов:  1  [  0 KB/s  ]   Подробная статистика пиров
 
 
 
 
Автор Сообщение

.:Mercury:. ®

VIP пользователь

Пол: Мужской

Стаж: 1 год 1 месяц

Сообщений: 2821

Карма: 31947 [+]

Наличие запрета:

[Профиль] [ЛС]

Создавать темы 06-Мар-2019 17:09

[Цитировать]

Чужая среди своих (Враг внутри) / The Enemy Within- -Год выпуска: 2019
Страна: США, NBC
Жанр: Драма
Продолжительность: ~00:45:00
Перевод: Профессиональный (многоголосый закадровый)
Доп. инфо о переводе: NewStudio--Режиссёр: Марк Пеллингтон--В ролях: Дженнифер Карпентер, Моррис Честнат, Раза Джаффри, Келли Гарнер, Кассандра Фриман, Ноа Миллс--Описание: Эрика Шепард — блестящий агент ЦРУ, заслужившая громкую «славу» одного из самых злостных предателей в истории США и определённая отбывать срок в тюрьму сверхстрогого режима. Агент ФБР Уилл Китон, у которого попросту нет другого выбора, вынужден обратиться к Шепард за помощью в поимке крайне опасного преступника, которого женщина очень хорошо знает. Так заключённая и спецагент начинают работать вместе, чтобы изловить врага, но у каждого из них своя причина усадить преступника за решётку.--Качество видео: WEB-DLRip
Формат: AVI--Видео: Xvid 720x400 23.976fps 1462kbps
Аудио: MPEG-1 Audio layer 3, 129 kbps (CBR), 48.0 KHz, 2 ch | Rus, Eng
General
Complete name : E:\The.Enemy.Within.s01e01.WEBDLRip.NewStudio.TV.avi
Format : AVI
Format/Info : Audio Video Interleave
File size : 550 MiB
Duration : 44 min 23 s
Overall bit rate : 1 732 kb/s
Writing application : VirtualDubMod 1.5.10.2 (build 2540/release)
Writing library : VirtualDubMod build 2540/release
Video
ID : 0
Format : MPEG-4 Visual
Format profile : Advanced Simple@L5
Format settings : BVOP2
Format settings, BVOP : 2
Format settings, QPel : No
Format settings, GMC : No warppoints
Format settings, Matrix : Default (MPEG)
Muxing mode : Packed bitstream
Codec ID : XVID
Codec ID/Hint : XviD
Duration : 44 min 23 s
Bit rate : 1 462 kb/s
Width : 720 pixels
Height : 400 pixels
Display aspect ratio : 16:9
Frame rate : 23.976 (24000/1001) FPS
Color space : YUV
Chroma subsampling : 4:2:0
Bit depth : 8 bits
Scan type : Progressive
Compression mode : Lossy
Bits/(Pixel*Frame) : 0.212
Stream size : 464 MiB (84%)
Writing library : XviD 67
Audio #1
ID : 1
Format : MPEG Audio
Format version : Version 1
Format profile : Layer 3
Format settings : Joint stereo / MS Stereo
Codec ID : 55
Codec ID/Hint : MP3
Duration : 44 min 23 s
Bit rate mode : Constant
Bit rate : 128 kb/s
Channel(s) : 2 channels
Sampling rate : 48.0 kHz
Compression mode : Lossy
Stream size : 40.6 MiB (7%)
Alignment : Aligned on interleaves
Interleave, duration : 42 ms (1.00 video frame)
Interleave, preload duration : 504 ms
Audio #2
ID : 2
Format : MPEG Audio
Format version : Version 1
Format profile : Layer 3
Format settings : Joint stereo
Codec ID : 55
Codec ID/Hint : MP3
Duration : 44 min 23 s
Bit rate mode : Constant
Bit rate : 128 kb/s
Channel(s) : 2 channels
Sampling rate : 48.0 kHz
Frame rate : 41.667 FPS (1152 SPF)
Compression mode : Lossy
Stream size : 40.6 MiB (7%)
Alignment : Aligned on interleaves
Interleave, duration : 42 ms (1.00 video frame)
Interleave, preload duration : 504 ms
Writing library : LAME3.100
Encoding settings : -m j -V 4 -q 2 -lowpass 17 -b 128

Релиз подготовлен RG Serials

Если ваш рейтинг упадет ниже 0,3, вы не сможете скачивать торренты! Подробнее о рейтинге.

[toptorrent.pw].t5673.torrent
Торрент: Зарегистрирован [ Сегодня, в 18:00 ] · 9CDF68D4A3FF998D8630C06C3AAD56EC0EA4DD6A

Скачать .torrent

Скачать

33 KB

Статус: T временная
Скачан: 0 раз
Размер: 1,61 GB
Оценка: 
(Голосов: 1)
Поблагодарили: 1  Спасибо   (список)
terms.php


Последний раз редактировалось: .:Mercury:. (Сегодня, в 18:00), всего редактировалось 1 раз

.:Mercury:. ®

VIP пользователь

Пол: Мужской

Стаж: 1 год 1 месяц

Сообщений: 2821

Карма: 31947 [+]

Наличие запрета:

[Профиль] [ЛС]

Создавать темы 09-Мар-2019 07:14 (спустя 2 дня 14 часов)

[Цитировать]

+2-я серия

.:Mercury:. ®

VIP пользователь

Пол: Мужской

Стаж: 1 год 1 месяц

Сообщений: 2821

Карма: 31947 [+]

Наличие запрета:

[Профиль] [ЛС]

Создавать темы Сегодня, в 18:01 (спустя 10 дней)

[Цитировать]

+3-я серия
Показать сообщения:    
Ответить на тему

Текущее время: 19-Мар 19:46

Часовой пояс: UTC + 5



Вы не можете начинать темы
Вы не можете отвечать на сообщения
Вы не можете редактировать свои сообщения
Вы не можете удалять свои сообщения
Вы не можете голосовать в опросах
Вы не можете прикреплять файлы к сообщениям
Вы можете скачивать файлы