Аквамен / Aquaman (Джеймс Ван / James Wan) [2018, Фантастика, фэнтези, боевик, приключения, WEB-DLRip-AVC] DUB [iTunes]

Ответить на тему
Статистика раздачи
Размер:  2,84 GB   |    Зарегистрирован:  12 дней   |    Скачан:  2 раза
Сидов:  3  [  4 KB/s  ]   Подробная статистика пиров
   
 
Автор Сообщение

_Deimos_ ®

VIP пользователь

Пол: Мужской

Стаж: 1 год 1 месяц

Сообщений: 244

Карма: 33000 [+]

Откуда: Топторрент

Наличие запрета:

[Профиль] [ЛС]

Создавать темы 06-Мар-2019 21:15

[Цитировать]

Аквамен-
-- Год выпуска: 2018
Страна: Австралия, США
Жанр: Фантастика, фэнтези, боевик, приключения
Продолжительность: 02:23:19
Перевод: Дублированный [iTunes]--Режиссер: Джеймс Ван-- В ролях: Джейсон Момоа, Эмбер Хёрд, Уиллем Дефо, Патрик Уилсон, Николь Кидман, Дольф Лундгрен, Яхья Абдул-Матин II, Темуэра Моррисон, Луди Юэнь, Майкл Бич-- Действие фильма разворачивается в необъятном и захватывающем подводном мире семи морей, а сюжет знакомит зрителей с историей происхождения получеловека-полуатланта Артура Карри и ключевыми событиями его жизни - теми, что заставят его не только столкнуться с самим собой, но и выяснить, достоин ли он быть тем, кем ему суждено... царем!-- Качество: WEB-DLRip-AVC
Формат видео: MKV
Видео кодек: H.264, 1024x576, 23.976 fps, 2136 kb/s
Аудио кодек #1: AC3, 48.0 kHz, 6 channels, 384 kb/s [A: DUB [iTunes] [rus]
Аудио кодек #2: AC3, 48.0 kHz, 2 channels, 192 kb/s [A: MVO [HDRezka Studio] [rus]
Аудио кодек #3: AAC, 44.1 kHz, 2 channels, 127 kb/s [A: DUB iTunes [ukr]
Субтитры: Русские и Украинские--

Рейтинг фильма --
General
Unique ID : 200166506265243962487833495798999046277 (0x9696AAB53CBBF3E889A08FEFDC9A5885)
Complete name : G:\Kino\Aquaman.2018.WEB-DLRip(AVC).OlLanDGroup.mkv
Format : Matroska
Format version : Version 4 / Version 2
File size : 2.84 GiB
Duration : 2 h 23 min
Overall bit rate : 2 839 kb/s
Movie name : Aquaman 2018 #TorpedoUK#
Encoded date : UTC 2019-03-06 00:54:11
Writing application : mkvmerge v29.0.0 ('Like It Or Not') 64-bit
Writing library : libebml v1.3.6 + libmatroska v1.4.9
Video
ID : 1
Format : AVC
Format/Info : Advanced Video Codec
Format profile : High@L4.1
Format settings, CABAC : Yes
Format settings, RefFrames : 10 frames
Codec ID : V_MPEG4/ISO/AVC
Duration : 2 h 23 min
Bit rate : 2 136 kb/s
Width : 1 024 pixels
Height : 576 pixels
Display aspect ratio : 16:9
Frame rate mode : Constant
Frame rate : 23.976 (24000/1001) FPS
Color space : YUV
Chroma subsampling : 4:2:0
Bit depth : 8 bits
Scan type : Progressive
Bits/(Pixel*Frame) : 0.151
Stream size : 2.14 GiB (75%)
Writing library : x264 core 146 r2538 121396c
Encoding settings : cabac=1 / ref=10 / deblock=1:-3:-3 / analyse=0x3:0x113 / me=umh / subme=10 / psy=1 / psy_rd=0.98:0.04 / mixed_ref=1 / me_range=48 / chroma_me=1 / trellis=2 / 8x8dct=1 / cqm=0 / deadzone=21,11 / fast_pskip=1 / chroma_qp_offset=-3 / threads=6 / lookahead_threads=1 / sliced_threads=0 / nr=0 / decimate=1 / interlaced=0 / bluray_compat=0 / constrained_intra=0 / bframes=11 / b_pyramid=2 / b_adapt=2 / b_bias=0 / direct=3 / weightb=1 / open_gop=0 / weightp=2 / keyint=250 / keyint_min=23 / scenecut=40 / intra_refresh=0 / rc_lookahead=40 / rc=2pass / mbtree=0 / bitrate=2136 / ratetol=1.0 / qcomp=0.60 / qpmin=0 / qpmax=69 / qpstep=4 / cplxblur=20.0 / qblur=0.5 / vbv_maxrate=50000 / vbv_bufsize=62500 / nal_hrd=none / filler=0 / ip_ratio=1.40 / pb_ratio=1.30 / aq=1:1.00
Language : English
Default : Yes
Forced : No
Audio #1
ID : 2
Format : AC-3
Format/Info : Audio Coding 3
Format settings, Endianness : Big
Codec ID : A_AC3
Duration : 2 h 23 min
Bit rate mode : Constant
Bit rate : 384 kb/s
Channel(s) : 6 channels
Channel positions : Front: L C R, Side: L R, LFE
Sampling rate : 48.0 kHz
Frame rate : 31.250 FPS (1536 SPF)
Bit depth : 16 bits
Compression mode : Lossy
Stream size : 394 MiB (14%)
Title : DUB [iTunes]
Language : Russian
Service kind : Complete Main
Default : Yes
Forced : No
Audio #2
ID : 3
Format : AC-3
Format/Info : Audio Coding 3
Format settings, Endianness : Big
Codec ID : A_AC3
Duration : 2 h 23 min
Bit rate mode : Constant
Bit rate : 192 kb/s
Channel(s) : 2 channels
Channel positions : Front: L R
Sampling rate : 48.0 kHz
Frame rate : 31.250 FPS (1536 SPF)
Bit depth : 16 bits
Compression mode : Lossy
Stream size : 197 MiB (7%)
Title : MVO [HDRezka Studio]
Language : Russian
Service kind : Complete Main
Default : No
Forced : No
Audio #3
ID : 4
Format : AAC
Format/Info : Advanced Audio Codec
Format profile : LC
Codec ID : A_AAC
Duration : 2 h 23 min
Bit rate : 127 kb/s
Channel(s) : 2 channels
Channel positions : Front: L R
Sampling rate : 44.1 kHz
Frame rate : 43.066 FPS (1024 SPF)
Compression mode : Lossy
Stream size : 130 MiB (4%)
Title : iTunes
Language : Ukrainian
Default : No
Forced : No
Text #1
ID : 5
Format : UTF-8
Codec ID : S_TEXT/UTF8
Codec ID/Info : UTF-8 Plain Text
Duration : 2 h 14 min
Bit rate : 1 b/s
Count of elements : 27
Stream size : 1.23 KiB (0%)
Title : Forced
Language : Russian
Default : Yes
Forced : No
Text #2
ID : 6
Format : UTF-8
Codec ID : S_TEXT/UTF8
Codec ID/Info : UTF-8 Plain Text
Duration : 2 h 22 min
Bit rate : 55 b/s
Count of elements : 1119
Stream size : 58.0 KiB (0%)
Title : Full
Language : Russian
Default : No
Forced : No
Text #3
ID : 7
Format : UTF-8
Codec ID : S_TEXT/UTF8
Codec ID/Info : UTF-8 Plain Text
Duration : 2 h 22 min
Bit rate : 1 b/s
Count of elements : 32
Stream size : 1.54 KiB (0%)
Title : Forced
Language : Ukrainian
Default : No
Forced : No
Menu
00:00:00.000 : en:1
00:11:08.293 : en:2
00:22:10.621 : en:3
00:30:10.017 : en:4
00:40:27.718 : en:5
00:50:23.647 : en:6
01:01:14.756 : en:7
01:08:56.092 : en:8
01:21:40.272 : en:9
01:34:49.436 : en:10
01:39:36.431 : en:11
01:49:31.818 : en:12
02:01:35.541 : en:13
02:10:18.897 : en:14

Релиз подготовлен RG Cinema

Если ваш рейтинг упадет ниже 0,3, вы не сможете скачивать торренты! Подробнее о рейтинге.

[toptorrent.pw].t5674.torrent
Торрент: Зарегистрирован [ 2019-03-06 21:15 ] · 75A8C31C4B324701805789D2335DE30C78A8B9B1

Скачать .torrent

Скачать

15 KB

Статус: проверено
Скачан: 2 раз
Размер: 2,84 GB
Оценка: 
(Голосов: 4)
Поблагодарили: 6  Спасибо   (список)
terms.php
Показать сообщения:    
Ответить на тему

Текущее время: 19-Мар 20:37

Часовой пояс: UTC + 5



Вы не можете начинать темы
Вы не можете отвечать на сообщения
Вы не можете редактировать свои сообщения
Вы не можете удалять свои сообщения
Вы не можете голосовать в опросах
Вы не можете прикреплять файлы к сообщениям
Вы можете скачивать файлы