Доказательство невиновности / Proven Innocent / Сезон: 1 / Серии: 1-13 из 13 (Патрисия Ригген, Анна Мастро) [2019, Драма, WEB-DLRip] (MVO : NewStudio)

Reply to topic

DL-List and Torrent activity
Size:  7.46 GB   |    Registered:  3 months 19 days   |    Completed:  0 times
Seeders:  1  [  0 KB/s  ]   Leechers:  1  [  0 KB/s  ]   Show peers in full details
 
 
 
 
Author Message

.:Mercury:. ®

Gender: Male

Longevity: 1 year 7 months

Posts: 3527

Карма: 31947 [+]

Наличие запрета:

[Profile] [PM]

Post 07-Mar-2019 08:13

[Quote]

Доказательство невиновности / Proven Innocent- -Год выпуска: 2019
Страна: США, FOX
Жанр: Драма
Продолжительность: ~00:45:00
Перевод: Профессиональный (многоголосый закадровый)
Доп. инфо о переводе: NewStudio--Режиссёр: Патрисия Ригген, Анна Мастро--В ролях: Рашель Лефевр, Расселл Хорнсби, Келси Грэммер, Кэйтлин Менер, Лори Холден, Кэтрил Лидстоун, Бен Мартен, Кейси Таттон, Элейн Хендрикс--Описание: Процедурная драма повествует о команде юристов, которые берутся за дела, связанные с ложными обвинениями.--Качество видео: WEB-DLRip
Формат: AVI-Видео: Xvid 720x400 23.976fps 1365kbps
Аудио: MPEG-1 Audio layer 3, 129 kbps (CBR), 48.0 KHz, 2 ch | Rus, Eng
General
Complete name : E:\Proven.Innocent.s01.WEBDLRip.NewStudio.TV\Proven.Innocent.s01e01.WEBDLRip.NewStudio.TV.avi
Format : AVI
Format/Info : Audio Video Interleave
File size : 550 MiB
Duration : 47 min 2 s
Overall bit rate : 1 635 kb/s
Writing application : VirtualDubMod 1.5.10.2 (build 2540/release)
Writing library : VirtualDubMod build 2540/release
Video
ID : 0
Format : MPEG-4 Visual
Format profile : Advanced Simple@L5
Format settings : BVOP2
Format settings, BVOP : 2
Format settings, QPel : No
Format settings, GMC : No warppoints
Format settings, Matrix : Default (MPEG)
Muxing mode : Packed bitstream
Codec ID : XVID
Codec ID/Hint : XviD
Duration : 47 min 2 s
Bit rate : 1 365 kb/s
Width : 720 pixels
Height : 400 pixels
Display aspect ratio : 16:9
Frame rate : 23.976 (24000/1001) FPS
Color space : YUV
Chroma subsampling : 4:2:0
Bit depth : 8 bits
Scan type : Progressive
Compression mode : Lossy
Bits/(Pixel*Frame) : 0.198
Stream size : 459 MiB (83%)
Writing library : XviD 67
Audio #1
ID : 1
Format : MPEG Audio
Format version : Version 1
Format profile : Layer 3
Format settings : Joint stereo / MS Stereo
Codec ID : 55
Codec ID/Hint : MP3
Duration : 47 min 2 s
Bit rate mode : Constant
Bit rate : 128 kb/s
Channel(s) : 2 channels
Sampling rate : 48.0 kHz
Compression mode : Lossy
Stream size : 43.1 MiB (8%)
Alignment : Aligned on interleaves
Interleave, duration : 42 ms (1.00 video frame)
Interleave, preload duration : 504 ms
Audio #2
ID : 2
Format : MPEG Audio
Format version : Version 1
Format profile : Layer 3
Format settings : Joint stereo
Codec ID : 55
Codec ID/Hint : MP3
Duration : 47 min 2 s
Bit rate mode : Constant
Bit rate : 128 kb/s
Channel(s) : 2 channels
Sampling rate : 48.0 kHz
Frame rate : 41.667 FPS (1152 SPF)
Compression mode : Lossy
Stream size : 43.1 MiB (8%)
Alignment : Aligned on interleaves
Interleave, duration : 42 ms (1.00 video frame)
Interleave, preload duration : 504 ms
Writing library : LAME3.100
Encoding settings : -m j -V 4 -q 2 -lowpass 17 -b 128

Release was prepared by RG Serials



If your ratio falls below 0.3, you will not be able to download Torrents! More about the rating.

[toptorrent.pw].t5675.torrent
Torrent: Registered [ 2019-06-01 00:00 ] · C28F6EA941276BCD8BFCC655F67FD900D7D17079

Download .torrent

Download

21 KB

Status: checked
Completed: 0 times
Size: 7.46 GB
Rate: 
(Vote: 1)
Has thanked: 1  Thanks   (List)
terms.php


Last edited by .:Mercury:. on 2019-06-01 00:00; edited 7 times in total

.:Mercury:. ®

Gender: Male

Longevity: 1 year 7 months

Posts: 3527

Карма: 31947 [+]

Наличие запрета:

[Profile] [PM]

Post 15-Mar-2019 16:17 (after 8 days)

[Quote]

+3-я серия 

.:Mercury:. ®

Gender: Male

Longevity: 1 year 7 months

Posts: 3527

Карма: 31947 [+]

Наличие запрета:

[Profile] [PM]

Post 22-Mar-2019 23:25 (after 7 days)

[Quote]

+4-я и 5-я серия 

.:Mercury:. ®

Gender: Male

Longevity: 1 year 7 months

Posts: 3527

Карма: 31947 [+]

Наличие запрета:

[Profile] [PM]

Post 05-Apr-2019 10:00 (after 13 days)

[Quote]

6-я серия 

.:Mercury:. ®

Gender: Male

Longevity: 1 year 7 months

Posts: 3527

Карма: 31947 [+]

Наличие запрета:

[Profile] [PM]

Post 12-Apr-2019 22:09 (after 7 days)

[Quote]

7-я серия 

.:Mercury:. ®

Gender: Male

Longevity: 1 year 7 months

Posts: 3527

Карма: 31947 [+]

Наличие запрета:

[Profile] [PM]

Post 17-Apr-2019 08:39 (after 4 days)

[Quote]

+8-я серия 

.:Mercury:. ®

Gender: Male

Longevity: 1 year 7 months

Posts: 3527

Карма: 31947 [+]

Наличие запрета:

[Profile] [PM]

Post 18-May-2019 15:49 (after 1 month 1 day)

[Quote]

+9-я, 10-я и 11-я серия 

.:Mercury:. ®

Gender: Male

Longevity: 1 year 7 months

Posts: 3527

Карма: 31947 [+]

Наличие запрета:

[Profile] [PM]

Post 29-May-2019 09:28 (after 10 days)

[Quote]

12-я серия 

.:Mercury:. ®

Gender: Male

Longevity: 1 year 7 months

Posts: 3527

Карма: 31947 [+]

Наличие запрета:

[Profile] [PM]

Post 01-Jun-2019 00:05 (after 2 days 14 hours)

[Quote]

+Заключительная серия 
Display posts:    
Reply to topic

Current time is: 20-Sep 14:50

All times are UTC + 5



You cannot post new topics in this forum
You cannot reply to topics in this forum
You cannot edit your posts in this forum
You cannot delete your posts in this forum
You cannot vote in polls in this forum
You cannot attach files in this forum
You can download files in this forum