Всегда ведьма / Siempre Bruja / Сезон: 1 / Серии: 1-10 из 10 (Лилиана Боканегра, Матео Стиуэльбер) [2019, Драма, Фэнтези, WEB-DLRip] (MVO : NewStudio)

Reply to topic
DL-List and Torrent activity
Size:  5.37 GB   |    Registered:  2 months 17 days   |    Completed:  1 time
Seeders:  1  [  0 KB/s  ]   Show peers in full details
 
 
 
 
Author Message

.:Mercury:. ®

Gender: Male

Longevity: 1 year 3 months

Posts: 3205

Карма: 31947 [+]

Наличие запрета:

[Profile] [PM]

Post 09-Mar-2019 07:53

[Quote]

Всегда ведьма / Siempre Bruja- -Год выпуска: 2019
Страна: Испания, Netflix
Жанр: Драма, Фэнтези
Продолжительность: ~00:40:00
Перевод: Профессиональный (многоголосый закадровый)
Доп. инфо о переводе: NewStudio--Режиссёр: Лилиана Боканегра, Матео Стиуэльбер--В ролях: Карлос Кинтеро, Анхели Гавирия, Валерия Эмилиани, Дилан Фуэнтес, София Бернал Араухо и другие--Описание: Кармен – рабыня и ведьма. Ей 19 лет, и она приговорена к сожжению на костре за преступление, которое нельзя искупить – любовь к белому человеку. Единственное спасение девушка находит у старой волшебницы, которая делает ей удивительное предложение: Кармен может совершить прыжок во времени туда, где никто не верит в ведьм. Есть только одно «но» – она должна пообещать, что перестанет использовать свою сверхъестественную силу. Девушка соглашается на это предложение и отправляется из 17-го века в современную Колумбию, где у нее начинается новая жизнь: она заводит друзей и даже ходит в школу. Но став однажды ведьмой, будешь ею всегда…--Качество видео: WEB-DLRip
Формат: AVI--Видео: Xvid 720x384 23.976fps 1685kbps
Аудио: MP3 48000Hz stereo 128kbps 2ch | Rus, Esp
General
Complete name : F:\Ртуть\Сериалы\Always.a.Witch.s01.WEBDLRip.NewStudio.TV\Always.a.Witch.s01e01.WEBDLRip.NewStudio.TV.avi
Format : AVI
Format/Info : Audio Video Interleave
File size : 550 MiB
Duration : 39 min 20 s
Overall bit rate : 1 955 kb/s
Writing application : VirtualDubMod 1.5.10.2 (build 2540/release)
Writing library : VirtualDubMod build 2540/release
Video
ID : 0
Format : MPEG-4 Visual
Format profile : Advanced Simple@L5
Format settings : BVOP2
Format settings, BVOP : 2
Format settings, QPel : No
Format settings, GMC : No warppoints
Format settings, Matrix : Default (MPEG)
Muxing mode : Packed bitstream
Codec ID : XVID
Codec ID/Hint : XviD
Duration : 39 min 20 s
Bit rate : 1 685 kb/s
Width : 720 pixels
Height : 384 pixels
Display aspect ratio : 1.85:1
Frame rate : 23.976 (24000/1001) FPS
Color space : YUV
Chroma subsampling : 4:2:0
Bit depth : 8 bits
Scan type : Progressive
Compression mode : Lossy
Bits/(Pixel*Frame) : 0.254
Stream size : 474 MiB (86%)
Writing library : XviD 67
Audio #1
ID : 1
Format : MPEG Audio
Format version : Version 1
Format profile : Layer 3
Format settings : Joint stereo / MS Stereo
Codec ID : 55
Codec ID/Hint : MP3
Duration : 39 min 20 s
Bit rate mode : Constant
Bit rate : 128 kb/s
Channel(s) : 2 channels
Sampling rate : 48.0 kHz
Compression mode : Lossy
Stream size : 36.0 MiB (7%)
Alignment : Aligned on interleaves
Interleave, duration : 42 ms (1.00 video frame)
Interleave, preload duration : 504 ms
Audio #2
ID : 2
Format : MPEG Audio
Format version : Version 1
Format profile : Layer 3
Format settings : Joint stereo
Codec ID : 55
Codec ID/Hint : MP3
Duration : 39 min 20 s
Bit rate mode : Constant
Bit rate : 128 kb/s
Channel(s) : 2 channels
Sampling rate : 48.0 kHz
Frame rate : 41.667 FPS (1152 SPF)
Compression mode : Lossy
Stream size : 36.0 MiB (7%)
Alignment : Aligned on interleaves
Interleave, duration : 42 ms (1.00 video frame)
Interleave, preload duration : 504 ms
Writing library : LAME3.100
Encoding settings : -m j -V 4 -q 2 -lowpass 17 -b 128

Release was prepared by RG Serials

If your ratio falls below 0.3, you will not be able to download Torrents! More about the rating.

[toptorrent.pw].t5678.torrent
Torrent: Registered [ 2019-03-09 07:53 ] · 07CB5B5C953709C42A034BD90342555766B6A51B

Download .torrent

Download

15 KB

Status: checked
Completed: 1 times
Size: 5.37 GB
Rate: 
(Vote: 1)
Has thanked: 2  Thanks   (List)
terms.php
Display posts:    
Reply to topic

Current time is: 26-May 07:53

All times are UTC + 5



You cannot post new topics in this forum
You cannot reply to topics in this forum
You cannot edit your posts in this forum
You cannot delete your posts in this forum
You cannot vote in polls in this forum
You cannot attach files in this forum
You can download files in this forum