Спасти Ленинград (Алексей Козлов) [2019, Драма, военный, WEB-DLRip] [iTunes]

Reply to topic
 
Author Message

_Deimos_ ®

VIP пользователь

Gender: Male

Longevity: 1 year 6 months

Posts: 379

Карма: 33000 [+]

Наличие запрета:

[Profile] [PM]

Post 10-Mar-2019 06:58

[Quote]


--Год выпуска: 2019
Страна: Россия
Жанр: Драма, военный
Продолжительность: 01:37:14
Перевод: Не требуется [iTunes] --Режиссёр: Алексей Козлов--В ролях: Мария Мельникова, Андрей Миронов-Удалов, Гела Месхи, Анастасия Мельникова, Сергей Жарков, Иван Лырчиков, Валерий Дегтярь, Михаил Морозов, Николай Горшков, Евгения Любимова-- : Сентябрь 1941 года. Юные влюбленные Костя и Настя волею обстоятельств оказываются на барже, которая должна вывезти людей из блокадного Ленинграда. Ночью судно попадает в шторм и терпит бедствие, на месте трагедии первыми оказываются вовсе не спасатели, а вражеские самолеты.-- Качество: WEB-DLRip
Формат видео: AVI
Видео: Xvid, 720x304, 24 fps, 1753 kb/s
Аудио: AC3, 48.0 kHz, 6 channels, 384 kb/s--

Рейтинг фильма --
General
Complete name : G:\Kino\Save.Leningrad.WEB-DLRip.ELEKTRI4KA.UNIONGANG.avi
Format : AVI
Format/Info : Audio Video Interleave
Format profile : OpenDML
File size : 1.46 GiB
Duration : 1 h 37 min
Overall bit rate : 2 149 kb/s
Writing application : Lavf57.71.100
Video
ID : 0
Format : MPEG-4 Visual
Format profile : Advanced Simple@L5
Format settings, BVOP : No
Format settings, QPel : No
Format settings, GMC : No warppoints
Format settings, Matrix : Default (H.263)
Codec ID : XVID
Codec ID/Hint : XviD
Duration : 1 h 37 min
Bit rate : 1 753 kb/s
Width : 720 pixels
Height : 304 pixels
Display aspect ratio : 2.40:1
Frame rate : 24.000 FPS
Color space : YUV
Chroma subsampling : 4:2:0
Bit depth : 8 bits
Scan type : Progressive
Compression mode : Lossy
Bits/(Pixel*Frame) : 0.334
Stream size : 1.19 GiB (82%)
Title : ELEKTRI4KA.UNIONGANG
Writing library : XviD 67
Audio
ID : 1
Format : AC-3
Format/Info : Audio Coding 3
Format settings, Endianness : Big
Codec ID : 2000
Duration : 1 h 37 min
Bit rate mode : Constant
Bit rate : 384 kb/s
Channel(s) : 6 channels
Channel positions : Front: L C R, Side: L R, LFE
Sampling rate : 48.0 kHz
Frame rate : 31.250 FPS (1536 SPF)
Bit depth : 16 bits
Compression mode : Lossy
Stream size : 267 MiB (18%)
Alignment : Aligned on interleaves
Interleave, duration : 32 ms (0.77 video frame)
Title : ELEKTRI4KA.UNIONGANG
Service kind : Complete Main

Release was prepared by RG Cinema

_Kratos_

Gender: Male

Longevity: 1 year 6 months

Posts: 417

Карма: 25379 [+]

Location: Навои

Наличие запрета:

[Profile] [PM]

Post 10-Mar-2019 08:39 (after 1 hour 40 minutes)

[Quote]

_Deimos_, +5)

фазилов

Gender: Male

Longevity: 1 year 6 months

Posts: 425

Карма: 4584 [+]

Location: Таш-море

Наличие запрета:

[Profile] [PM]

Post 10-Mar-2019 13:24 (after 4 hours)

[Quote]

_Deimos_, +5
Display posts:    
Reply to topic

Current time is: 18-Aug 01:34

All times are UTC + 5



You cannot post new topics in this forum
You cannot reply to topics in this forum
You cannot edit your posts in this forum
You cannot delete your posts in this forum
You cannot vote in polls in this forum
You cannot attach files in this forum
You cannot download files in this forum