Спасти Ленинград (Алексей Козлов) [2019, Драма, военный, WEB-DLRip] [iTunes]

Ответить на тему
 
Автор Сообщение

_Deimos_ ®

VIP пользователь

Пол: Мужской

Стаж: 1 год 1 месяц

Сообщений: 245

Карма: 33000 [+]

Откуда: Топторрент

Наличие запрета:

[Профиль] [ЛС]

Создавать темы 10-Мар-2019 06:58

[Цитировать]


--Год выпуска: 2019
Страна: Россия
Жанр: Драма, военный
Продолжительность: 01:37:14
Перевод: Не требуется [iTunes] --Режиссёр: Алексей Козлов--В ролях: Мария Мельникова, Андрей Миронов-Удалов, Гела Месхи, Анастасия Мельникова, Сергей Жарков, Иван Лырчиков, Валерий Дегтярь, Михаил Морозов, Николай Горшков, Евгения Любимова-- : Сентябрь 1941 года. Юные влюбленные Костя и Настя волею обстоятельств оказываются на барже, которая должна вывезти людей из блокадного Ленинграда. Ночью судно попадает в шторм и терпит бедствие, на месте трагедии первыми оказываются вовсе не спасатели, а вражеские самолеты.-- Качество: WEB-DLRip
Формат видео: AVI
Видео: Xvid, 720x304, 24 fps, 1753 kb/s
Аудио: AC3, 48.0 kHz, 6 channels, 384 kb/s--

Рейтинг фильма --
General
Complete name : G:\Kino\Save.Leningrad.WEB-DLRip.ELEKTRI4KA.UNIONGANG.avi
Format : AVI
Format/Info : Audio Video Interleave
Format profile : OpenDML
File size : 1.46 GiB
Duration : 1 h 37 min
Overall bit rate : 2 149 kb/s
Writing application : Lavf57.71.100
Video
ID : 0
Format : MPEG-4 Visual
Format profile : Advanced Simple@L5
Format settings, BVOP : No
Format settings, QPel : No
Format settings, GMC : No warppoints
Format settings, Matrix : Default (H.263)
Codec ID : XVID
Codec ID/Hint : XviD
Duration : 1 h 37 min
Bit rate : 1 753 kb/s
Width : 720 pixels
Height : 304 pixels
Display aspect ratio : 2.40:1
Frame rate : 24.000 FPS
Color space : YUV
Chroma subsampling : 4:2:0
Bit depth : 8 bits
Scan type : Progressive
Compression mode : Lossy
Bits/(Pixel*Frame) : 0.334
Stream size : 1.19 GiB (82%)
Title : ELEKTRI4KA.UNIONGANG
Writing library : XviD 67
Audio
ID : 1
Format : AC-3
Format/Info : Audio Coding 3
Format settings, Endianness : Big
Codec ID : 2000
Duration : 1 h 37 min
Bit rate mode : Constant
Bit rate : 384 kb/s
Channel(s) : 6 channels
Channel positions : Front: L C R, Side: L R, LFE
Sampling rate : 48.0 kHz
Frame rate : 31.250 FPS (1536 SPF)
Bit depth : 16 bits
Compression mode : Lossy
Stream size : 267 MiB (18%)
Alignment : Aligned on interleaves
Interleave, duration : 32 ms (0.77 video frame)
Title : ELEKTRI4KA.UNIONGANG
Service kind : Complete Main

Релиз подготовлен RG Cinema

_Kratos_

Пол: Мужской

Стаж: 1 год 1 месяц

Сообщений: 401

Карма: 12258 [+]

Откуда: Навои

Наличие запрета:

[Профиль] [ЛС]

Создавать темы 10-Мар-2019 08:39 (спустя 1 час 40 минут)

[Цитировать]

_Deimos_, +5)

фазилов

Пол: Мужской

Стаж: 1 год 1 месяц

Сообщений: 400

Карма: 4558 [+]

Откуда: Таш-море

Наличие запрета:

[Профиль] [ЛС]

Создавать темы 10-Мар-2019 13:24 (спустя 4 часа)

[Цитировать]

_Deimos_, +5
Показать сообщения:    
Ответить на тему

Текущее время: 21-Мар 14:29

Часовой пояс: UTC + 5



Вы не можете начинать темы
Вы не можете отвечать на сообщения
Вы не можете редактировать свои сообщения
Вы не можете удалять свои сообщения
Вы не можете голосовать в опросах
Вы не можете прикреплять файлы к сообщениям
Вы не можете скачивать файлы