Невыразимое / Unspeakable / Сезон: 1 / Серии: 1-2 из 4 (Грегори Смит, Роберт С. Купер, Энди Микита) [2019, Драма, WEB-DLRip] (MVO : NewStudio)

Ответить на тему
Статистика раздачи
Размер:  1,07 GB   |    Зарегистрирован:  1 день 21 час   |    Скачан:  0 раз

Полного источника не было: 13 часов

 
 
 
 
Автор Сообщение

.:Mercury:. ®

VIP пользователь

Пол: Мужской

Стаж: 1 год 1 месяц

Сообщений: 2826

Карма: 31947 [+]

Наличие запрета:

[Профиль] [ЛС]

Создавать темы 10-Мар-2019 09:40

[Цитировать]

Невыразимое / Unspeakable- -Год выпуска: 2019
Страна: Канада, CBS
Жанр: Драма
Продолжительность: ~00:44:00
Перевод: Профессиональный (многоголосый закадровый)
Доп. инфо о переводе: NewStudio--Режиссёр: Грегори Смит, Роберт С. Купер, Энди Микита--В ролях: Кэролайн Кейв, Шон Дойл, Дэвид Льюис, Майкл Шэнкс, Камилль Салливан, Сара Уэйн, Кэллис Лоссен, Чэмберс Амитай, Мэрморштейн Пол--Описание: Сериал-хроника основанный на реальных событиях описанных журналистами и учеными о недостатке крови в банке крови в 1980-х годах в Канаде при зародившейся и разрастающейся эпидемии ВИЧ и Гепатита.-Качество видео: WEB-DLRip
Формат: AVI-Видео: Xvid 720x400 23.976fps 1461kbps
Аудио: MPEG-1 Audio layer 3, 129 kbps (CBR), 48.0 KHz, 2 ch | Rus, Eng
General
Complete name : F:\Ртуть\Сериалы\Unspeakable.s01e01.WEBDLRip.NewStudio.TV.avi
Format : AVI
Format/Info : Audio Video Interleave
File size : 550 MiB
Duration : 44 min 25 s
Overall bit rate : 1 731 kb/s
Writing application : VirtualDubMod 1.5.10.2 (build 2540/release)
Writing library : VirtualDubMod build 2540/release
Video
ID : 0
Format : MPEG-4 Visual
Format profile : Advanced Simple@L5
Format settings : BVOP2
Format settings, BVOP : 2
Format settings, QPel : No
Format settings, GMC : No warppoints
Format settings, Matrix : Default (MPEG)
Muxing mode : Packed bitstream
Codec ID : XVID
Codec ID/Hint : XviD
Duration : 44 min 25 s
Bit rate : 1 461 kb/s
Width : 720 pixels
Height : 400 pixels
Display aspect ratio : 16:9
Frame rate : 23.976 (24000/1001) FPS
Color space : YUV
Chroma subsampling : 4:2:0
Bit depth : 8 bits
Scan type : Progressive
Compression mode : Lossy
Bits/(Pixel*Frame) : 0.212
Stream size : 464 MiB (84%)
Writing library : XviD 67
Audio #1
ID : 1
Format : MPEG Audio
Format version : Version 1
Format profile : Layer 3
Format settings : Joint stereo / MS Stereo
Codec ID : 55
Codec ID/Hint : MP3
Duration : 44 min 25 s
Bit rate mode : Constant
Bit rate : 128 kb/s
Channel(s) : 2 channels
Sampling rate : 48.0 kHz
Compression mode : Lossy
Stream size : 40.7 MiB (7%)
Alignment : Aligned on interleaves
Interleave, duration : 42 ms (1.00 video frame)
Interleave, preload duration : 504 ms
Audio #2
ID : 2
Format : MPEG Audio
Format version : Version 1
Format profile : Layer 3
Format settings : Joint stereo
Codec ID : 55
Codec ID/Hint : MP3
Duration : 44 min 25 s
Bit rate mode : Constant
Bit rate : 128 kb/s
Channel(s) : 2 channels
Sampling rate : 48.0 kHz
Frame rate : 41.667 FPS (1152 SPF)
Compression mode : Lossy
Stream size : 40.7 MiB (7%)
Alignment : Aligned on interleaves
Interleave, duration : 42 ms (1.00 video frame)
Interleave, preload duration : 504 ms
Writing library : LAME3.100
Encoding settings : -m j -V 4 -q 2 -lowpass 17 -b 128

Релиз подготовлен RG Serials

Если ваш рейтинг упадет ниже 0,3, вы не сможете скачивать торренты! Подробнее о рейтинге.

[toptorrent.pw].t5681.torrent
Торрент: Зарегистрирован [ 2019-03-19 17:17 ] · 7C8657EB3998BFA99AA2F78800BAA8F9B860A04A

Скачать .torrent

Скачать

22 KB

Статус: T временная
Скачан: 0 раз
Размер: 1,07 GB
Оценка: 
(Голосов: 1)
Поблагодарили: 1  Спасибо   (список)
terms.php

.:Mercury:. ®

VIP пользователь

Пол: Мужской

Стаж: 1 год 1 месяц

Сообщений: 2826

Карма: 31947 [+]

Наличие запрета:

[Профиль] [ЛС]

Создавать темы 19-Мар-2019 17:18 (спустя 9 дней)

[Цитировать]

+2-я серия
Показать сообщения:    
Ответить на тему

Текущее время: 21-Мар 14:56

Часовой пояс: UTC + 5



Вы не можете начинать темы
Вы не можете отвечать на сообщения
Вы не можете редактировать свои сообщения
Вы не можете удалять свои сообщения
Вы не можете голосовать в опросах
Вы не можете прикреплять файлы к сообщениям
Вы можете скачивать файлы