Предатели / Traitors / Сезон: 1 / Серии: 1-6 из 6 (Диэрбхла Уолш, Алекс Винклер) [2019, Триллер, HDTVRip] (MVO : NewStudio)

Reply to topic

DL-List and Torrent activity
Size:  3.44 GB   |    Registered:  2 months 19 days   |    Completed:  0 times
Seeders:  1  [  0 KB/s  ]   Show peers in full details
 
 
 
 
Author Message

.:Mercury:. ®

Gender: Male

Longevity: 1 year 6 months

Posts: 3493

Карма: 31947 [+]

Наличие запрета:

[Profile] [PM]

Post 15-Mar-2019 11:43

[Quote]

Предатели / Traitors- -Год выпуска: 2019
Страна: Великобритания, Channel 4
Жанр: Триллер
Продолжительность: ~00:45:00
Перевод: Профессиональный (многоголосый закадровый)
Доп. инфо о переводе: NewStudio--Режиссёр: Диэрбхла Уолш, Алекс Винклер--В ролях: Альберт Веллинг, Кили Хоуз, Саймон Кунц, Брэндон Пи Белл, Грег МакХью, Эмма Эпплтон, Мэтт Лауриа, Роберт Гудэйл, Майкл Стулбарг, Джейми Блэкли--Описание: После Второй мировой войны Британия изо всех сил пытается занять свое место в новом мировом порядке. Фиф Саймондс, смелая и амбициозная молодая женщина, приходит на государственную службу в 1945 году, как раз в то время, когда лейбористская партия стремится к победе. Фиф соглашается шпионить в пользу американцев, которые полны решимости сделать все возможное, чтобы растущие социалистические амбиции Англии не сыграли на руку Советскому Союзу. Пытаясь понять, за что она борется и на что способна, Фиф должна научиться думать самостоятельно и играть по собственным правилам во времена, когда информация завладевает миром и ничто не является тем, чем кажется.--Качество видео: HDTVRip
Формат: AVI--Видео: Xvid 720x368 25fps 1342kbps
Аудио: MP3 48000Hz stereo 128kbps | Rus, Eng
General
Complete name : F:\Ртуть\Сериалы\Traitors.s01e01.HDTVRip.NewStudio.TV.avi
Format : AVI
Format/Info : Audio Video Interleave
File size : 550 MiB
Duration : 47 min 41 s
Overall bit rate : 1 613 kb/s
Writing application : VirtualDubMod 1.5.10.2 (build 2540/release)
Writing library : VirtualDubMod build 2540/release
Video
ID : 0
Format : MPEG-4 Visual
Format profile : Advanced Simple@L5
Format settings : BVOP2
Format settings, BVOP : 2
Format settings, QPel : No
Format settings, GMC : No warppoints
Format settings, Matrix : Default (MPEG)
Muxing mode : Packed bitstream
Codec ID : XVID
Codec ID/Hint : XviD
Duration : 47 min 41 s
Bit rate : 1 342 kb/s
Width : 720 pixels
Height : 368 pixels
Display aspect ratio : 1.957
Frame rate : 25.000 FPS
Color space : YUV
Chroma subsampling : 4:2:0
Bit depth : 8 bits
Scan type : Progressive
Compression mode : Lossy
Bits/(Pixel*Frame) : 0.203
Stream size : 458 MiB (83%)
Writing library : XviD 67
Audio #1
ID : 1
Format : MPEG Audio
Format version : Version 1
Format profile : Layer 3
Format settings : Joint stereo / MS Stereo
Codec ID : 55
Codec ID/Hint : MP3
Duration : 47 min 41 s
Bit rate mode : Constant
Bit rate : 128 kb/s
Channel(s) : 2 channels
Sampling rate : 48.0 kHz
Compression mode : Lossy
Stream size : 43.7 MiB (8%)
Alignment : Aligned on interleaves
Interleave, duration : 40 ms (1.00 video frame)
Interleave, preload duration : 504 ms
Audio #2
ID : 2
Format : MPEG Audio
Format version : Version 1
Format profile : Layer 3
Format settings : Joint stereo / MS Stereo
Codec ID : 55
Codec ID/Hint : MP3
Duration : 47 min 41 s
Bit rate mode : Constant
Bit rate : 128 kb/s
Channel(s) : 2 channels
Sampling rate : 48.0 kHz
Frame rate : 41.667 FPS (1152 SPF)
Compression mode : Lossy
Stream size : 43.7 MiB (8%)
Alignment : Aligned on interleaves
Interleave, duration : 40 ms (1.00 video frame)
Interleave, preload duration : 504 ms
Writing library : LAME3.100
Encoding settings : -m j -V 4 -q 2 -lowpass 17 -b 128

Release was prepared by RG Serials



If your ratio falls below 0.3, you will not be able to download Torrents! More about the rating.

[toptorrent.pw].t5688.torrent
Torrent: Registered [ 2019-05-29 08:08 ] · E93B753900BFEB2C712588408A3104416EC70823

Download .torrent

Download

18 KB

Status: checked
Completed: 0 times
Size: 3.44 GB
Rate: 
(Vote: 1)
Has thanked: 1  Thanks   (List)
terms.php


Last edited by .:Mercury:. on 2019-05-29 08:08; edited 3 times in total

.:Mercury:. ®

Gender: Male

Longevity: 1 year 6 months

Posts: 3493

Карма: 31947 [+]

Наличие запрета:

[Profile] [PM]

Post 22-Mar-2019 16:03 (after 7 days)

[Quote]

+2-я серия 

.:Mercury:. ®

Gender: Male

Longevity: 1 year 6 months

Posts: 3493

Карма: 31947 [+]

Наличие запрета:

[Profile] [PM]

Post 11-Apr-2019 17:07 (after 20 days)

[Quote]

+3-я серия 

.:Mercury:. ®

Gender: Male

Longevity: 1 year 6 months

Posts: 3493

Карма: 31947 [+]

Наличие запрета:

[Profile] [PM]

Post 18-Apr-2019 21:23 (after 7 days)

[Quote]

+4-я серия 

.:Mercury:. ®

Gender: Male

Longevity: 1 year 6 months

Posts: 3493

Карма: 31947 [+]

Наличие запрета:

[Profile] [PM]

Post 29-May-2019 08:19 (after 1 month 10 days)

[Quote]

+Заключительные серии 
Display posts:    
Reply to topic

Current time is: 18-Aug 01:52

All times are UTC + 5



You cannot post new topics in this forum
You cannot reply to topics in this forum
You cannot edit your posts in this forum
You cannot delete your posts in this forum
You cannot vote in polls in this forum
You cannot attach files in this forum
You can download files in this forum