Крид 2 / Creed II (Стивен Кейпл мл. / Steven Caple Jr.) [2018 г., Драма, спорт, BDRip] DUB [Лицензия]

Reply to topic

DL-List and Torrent activity
Size:  1.46 GB   |    Registered:  8 months 25 days   |    Completed:  0 times

Seeder not seen: 4 months 11 days

 
 
 
 
Author Message

_Deimos_ ®

VIP пользователь

Gender: Male

Longevity: 1 year 10 months

Posts: 379

Карма: 33000 [+]

Наличие запрета:

[Profile] [PM]

Post 16-Mar-2019 21:29

[Quote]

Крид 2-
--
Год выпуска: 2018
Страна: США
Жанр: Драма, спорт
Продолжительность: 02:10:00
Перевод: Дублированный [Лицензия]--Режиссёр: Стивен Кейпл мл.--В ролях: Майкл Б. Джордан (Adonis Johnson), Сильвестр Сталлоне (Rocky Balboa), Тесса Томпсон (Bianca), Филисия Рашад (Mary Anne Creed), Дольф Лундгрен (Ivan Drago), Флориан Мунтяну (Viktor Drago), Расселл Хорнсби (Buddy Marcelle), Вуд Харрис (Tony «Little Duke» Burton), Майло Вентимилья (Robert Balboa), Робби Джонс (Logan Balboa), Андре Уорд (Danny «Stuntman» Wheeler), Бриджит Нильсен (Ludmilla Drago)-- : Жизнь Адониса Крида превратилась в череду компромиссов. Пока он разрывается между долгом и тренировками к следующему большому бою, судьба готовит ему новую невыполнимую миссию. Будущий противник тесно связан с историей его семьи, что лишь повышает ставки перед предстоящим выходом на ринг. Рокки Бальбоа всегда будет на стороне Крида, и вместе они выйдут на битву с призраками их общего прошлого, выяснят, за что действительно стоит сражаться, и поймут, что нет ничего дороже семьи. Нужно вернуться к истокам, чтобы вспомнить, что именно сделало тебя чемпионом, и что, куда бы ты не бежал, от себя все равно не скрыться.-- Качество: BDRip
Формат видео: AVI
Видео: Xvid, 720x304, 23.976 fps, 1407 kb/s
Аудио: AC3, 48.0 kHz, 2 channels, 192 kb/s--

Рейтинг фильма --
General
Complete name : G:\Kino\Creed.2.2018.BDRip.1.46Gb.DUB.MegaPeer\Creed.2.2018.BDRip.1.46Gb.DUB.MegaPeer.avi
Format : AVI
Format/Info : Audio Video Interleave
File size : 1.46 GiB
Duration : 2 h 10 min
Overall bit rate : 1 608 kb/s
Writing application : VirtualDubMod 1.5.10.3 | www.virtualdub-fr.org || (build 2550/release)
Writing library : VirtualDubMod build 2550/release
Video
ID : 0
Format : MPEG-4 Visual
Format profile : Advanced Simple@L5
Format settings, BVOP : 1
Format settings, QPel : No
Format settings, GMC : No warppoints
Format settings, Matrix : Custom
Codec ID : XVID
Codec ID/Hint : XviD
Duration : 2 h 10 min
Bit rate : 1 407 kb/s
Width : 720 pixels
Height : 304 pixels
Display aspect ratio : 2.35:1
Frame rate : 23.976 (24000/1001) FPS
Color space : YUV
Chroma subsampling : 4:2:0
Bit depth : 8 bits
Scan type : Progressive
Compression mode : Lossy
Bits/(Pixel*Frame) : 0.268
Stream size : 1.28 GiB (87%)
Writing library : XviD 73
Audio
ID : 1
Format : AC-3
Format/Info : Audio Coding 3
Format settings, Endianness : Big
Codec ID : 2000
Duration : 2 h 10 min
Bit rate mode : Constant
Bit rate : 192 kb/s
Channel(s) : 2 channels
Channel positions : Front: L R
Sampling rate : 48.0 kHz
Frame rate : 31.250 FPS (1536 SPF)
Bit depth : 16 bits
Compression mode : Lossy
Stream size : 179 MiB (12%)
Alignment : Split accross interleaves
Interleave, duration : 42 ms (1.00 video frame)
Interleave, preload duration : 500 ms
Service kind : Complete Main

Release was prepared by RG Cinema



If your ratio falls below 0.3, you will not be able to download Torrents! More about the rating.

[toptorrent.pw].t5694.torrent
Torrent: Registered [ 2019-03-16 21:29 ] · D07CAE3A555FFC39D2E9DE8FC4EEE079CFF9866F

Download .torrent

Download

15 KB

Status: checked
Completed: 0 times
Size: 1.46 GB
Rate: 
(Vote: 1)
Has thanked: 1  Thanks   (List)
terms.php
Display posts:    
Reply to topic

Current time is: 11-Dec 02:51

All times are UTC + 5



You cannot post new topics in this forum
You cannot reply to topics in this forum
You cannot edit your posts in this forum
You cannot delete your posts in this forum
You cannot vote in polls in this forum
You cannot attach files in this forum
You can download files in this forum