Уэйн / Wayne / Сезон: 1 / Серии: 1-10 из 10 (Иэн Б. Макдональд, Стив Пинк, Майкл Патрик Джэнн, Тесса Хофф, Стефани Лэин) [2019, Комедия, WEB-DLRip] (MVO)

Reply to topic
DL-List and Torrent activity
Size:  3.42 GB   |    Registered:  3 months   |    Completed:  1 time
Seeders:  3  [  0 KB/s  ]   Show peers in full details
   
 
Author Message

.:Mercury:. ®

Gender: Male

Longevity: 1 year 4 months

Posts: 3330

Карма: 31947 [+]

Наличие запрета:

[Profile] [PM]

Post 20-Mar-2019 16:22

[Quote]

Уэйн / Wayne- -Год выпуска: 2019
Страна: США, YoutubeRED
Жанр: Комедия
Продолжительность: ~00:30:00
Перевод: Профессиональный (многоголосый закадровый) NewStudio--Режиссёр: Иэн Б. Макдональд, Стив Пинк, Майкл Патрик Джэнн, Тесса Хофф, Стефани Лэин--В ролях: Марк Маккенна, Сиэра Браво, Джейми Шампейн, Джон Шампейн, Джеймс Эрл, Стивен Кеарин, Франческо Антонио, Дин Уинтерс, Майк О'Мэлли--Описание: Антигеройское приключение поведает о том, как пятнадцатилетний Уэйн знакомится с девчонкой по имени Дэл и вместе они отправляются на кроссбайке добывать Pontiac Trans Am 78-го года, украденный у отца парнишки прямо перед его смертью. Попутно не забывая спасать людей с особой жестокостью. Кровь, мат и правосудие — всё как вы любите.--Качество видео: WEB-DLRip
Формат: AVI-Видео: XviD, 720x368, 23.976 (24000/1001) fps, 1 096 kb/s
Аудио: MP3 48000Hz stereo 128kbps | Rus, Eng
General
Complete name : /home/mercury/Видео/Serials/Wayne.s01.WEBDLRip.NewStudio.TV/Wayne.s01e01.WEBDLRip.NewStudio.TV.avi
Format : AVI
Format/Info : Audio Video Interleave
File size : 350 MiB
Duration : 35 min 51 s
Overall bit rate : 1 366 kb/s
Writing application : VirtualDubMod 1.5.10.2 (build 2540/release)
Writing library : VirtualDubMod build 2540/release
Video
ID : 0
Format : MPEG-4 Visual
Format profile : Advanced Simple@L5
Format settings : BVOP2
Format settings, BVOP : 2
Format settings, QPel : No
Format settings, GMC : No warppoints
Format settings, Matrix : Default (MPEG)
Muxing mode : Packed bitstream
Codec ID : XVID
Codec ID/Hint : XviD
Duration : 35 min 51 s
Bit rate : 1 096 kb/s
Width : 720 pixels
Height : 368 pixels
Display aspect ratio : 1.957
Frame rate : 23.976 (24000/1001) FPS
Color space : YUV
Chroma subsampling : 4:2:0
Bit depth : 8 bits
Scan type : Progressive
Compression mode : Lossy
Bits/(Pixel*Frame) : 0.172
Stream size : 281 MiB (80%)
Writing library : XviD 67
Audio #1
ID : 1
Format : MPEG Audio
Format version : Version 1
Format profile : Layer 3
Format settings : Joint stereo / MS Stereo
Codec ID : 55
Codec ID/Hint : MP3
Duration : 35 min 51 s
Bit rate mode : Constant
Bit rate : 128 kb/s
Channel(s) : 2 channels
Sampling rate : 48.0 kHz
Compression mode : Lossy
Stream size : 32.8 MiB (9%)
Alignment : Aligned on interleaves
Interleave, duration : 42 ms (1.00 video frame)
Interleave, preload duration : 504 ms
Audio #2
ID : 2
Format : MPEG Audio
Format version : Version 1
Format profile : Layer 3
Format settings : Joint stereo
Codec ID : 55
Codec ID/Hint : MP3
Duration : 35 min 51 s
Bit rate mode : Constant
Bit rate : 128 kb/s
Channel(s) : 2 channels
Sampling rate : 48.0 kHz
Frame rate : 41.667 FPS (1152 SPF)
Compression mode : Lossy
Stream size : 32.8 MiB (9%)
Alignment : Aligned on interleaves
Interleave, duration : 42 ms (1.00 video frame)
Interleave, preload duration : 504 ms
Writing library : LAME3.100
Encoding settings : -m j -V 4 -q 2 -lowpass 17 -b 128

Release was prepared by RG Serials

If your ratio falls below 0.3, you will not be able to download Torrents! More about the rating.

[toptorrent.pw].t5704.torrent
Torrent: Registered [ 2019-03-20 16:22 ] · 9F137A1391E27906901CD6042A0CECB5C9B59405

Download .torrent

Download

36 KB

Status: checked
Completed: 1 times
Size: 3.42 GB
Rate: 
(Vote: 2)
Has thanked: 2  Thanks   (List)
terms.php
Display posts:    
Reply to topic

Current time is: 20-Jun 22:10

All times are UTC + 5



You cannot post new topics in this forum
You cannot reply to topics in this forum
You cannot edit your posts in this forum
You cannot delete your posts in this forum
You cannot vote in polls in this forum
You cannot attach files in this forum
You can download files in this forum