Тройная угроза / Triple Threat (Джесси Джонсон / Jesse Johnson) [2019, Боевик, триллер, криминал, WEB-DL 720р] DUB [iTunes]

Reply to topic

DL-List and Torrent activity
Size:  2.95 GB   |    Registered:  8 months 21 day   |    Completed:  2 times

Seeder not seen: 1 month 28 days

 
 
 
 
Author Message

_Deimos_ ®

VIP пользователь

Gender: Male

Longevity: 1 year 10 months

Posts: 379

Карма: 33000 [+]

Наличие запрета:

[Profile] [PM]

Post 22-Mar-2019 15:06

[Quote]

Тройная угроза / Triple Threat- --Год выпуска: 2019
Страна: Таиланд, Китай, США
Жанр: Боевик, триллер, криминал
Продолжительность: 01:35:51
Перевод: Дублированный [iTunes]--Режиссер: Джесси Джонсон--В ролях: Тони Джа, Ико Уайс, Тайгер Чэнь, Скотт Эдкинс, Селина Джейд, Майкл Джей Уайт, Доминик Ванденберг, Яанин Висмитананда, Майкл Вон, Дэниэл Уайт-- : Международная преступная группировка посылает команду профессиональных киллеров убить дочь миллиардера, которая задумала положить конец их криминальной деятельности. Спасать девушку будут трое наёмников, в прошлом — успешных бойцов.-- Качество: WEB-DL 720р
Формат видео: MKV
Видео: H.264, 1280x536, 23.976 fps, 3930 kb/s
Аудио: AC3, 48.0 kHz, 6 channels, 384 kb/s--Рейтинг фильма --
General
Unique ID : 239114510646498160286175939267094048785 (0xB3E3C7951F07CE44889E0B3914E6F011)
Complete name : G:\Kino\Triple.Threat.WEB-DL.720p.ELEKTRI4KA.UNIONGANG.mkv
Format : Matroska
Format version : Version 2
File size : 2.95 GiB
Duration : 1 h 35 min
Overall bit rate : 4 402 kb/s
Movie name : Triple.Threat.WEB-DL.720p.ELEKTRI4KA.UNIONGANG
Encoded date : UTC 2019-03-21 19:56:14
Writing application : mkvmerge v7.8.0 ('River Man') 32bit built on Apr 3 2015 12:11:22
Writing library : libebml v1.3.1 + libmatroska v1.4.2
Cover : Yes
Attachments : cover.jpg
Video
ID : 2
Format : AVC
Format/Info : Advanced Video Codec
Format profile : Main@L3.1
Format settings, CABAC : No
Format settings, RefFrames : 2 frames
Codec ID : V_MPEG4/ISO/AVC
Duration : 1 h 35 min
Bit rate : 3 930 kb/s
Width : 1 280 pixels
Height : 536 pixels
Display aspect ratio : 2.40:1
Frame rate mode : Constant
Frame rate : 23.976 (24000/1001) FPS
Color space : YUV
Chroma subsampling : 4:2:0
Bit depth : 8 bits
Scan type : Progressive
Bits/(Pixel*Frame) : 0.239
Stream size : 2.63 GiB (89%)
Title : ELEKTRI4KA.UNIONGANG
Language : English
Default : Yes
Forced : No
Color range : Limited
Color primaries : BT.709
Transfer characteristics : BT.709
Matrix coefficients : BT.709
Audio
ID : 1
Format : AC-3
Format/Info : Audio Coding 3
Format settings, Endianness : Big
Codec ID : A_AC3
Duration : 1 h 35 min
Bit rate mode : Constant
Bit rate : 384 kb/s
Channel(s) : 6 channels
Channel positions : Front: L C R, Side: L R, LFE
Sampling rate : 48.0 kHz
Frame rate : 31.250 FPS (1536 SPF)
Bit depth : 16 bits
Compression mode : Lossy
Stream size : 263 MiB (9%)
Title : ELEKTRI4KA.UNIONGANG
Language : Russian
Service kind : Complete Main
Default : Yes
Forced : No
Menu
00:00:00.000 : en:Глава 1
00:13:42.989 : en:Глава 2
00:21:05.806 : en:Глава 3
00:28:40.009 : en:Глава 4
00:35:23.578 : en:Глава 5
00:46:56.020 : en:Глава 6
00:54:11.163 : en:Глава 7
01:00:25.369 : en:Глава 8
01:08:35.191 : en:Глава 9
01:13:33.781 : en:Глава 10
01:29:59.933 : en:Глава 11

Release was prepared by RG Cinema



If your ratio falls below 0.3, you will not be able to download Torrents! More about the rating.

[toptorrent.pw].t5709.torrent
Torrent: Registered [ 2019-03-22 15:06 ] · EBB06D441691DD98E490C554504E6A3080364CED

Download .torrent

Download

15 KB

Status: checked
Completed: 2 times
Size: 2.95 GB
Rate: 
(Vote: 3)
Has thanked: 4  Thanks   (List)
terms.php
Display posts:    
Reply to topic

Current time is: 13-Dec 01:56

All times are UTC + 5



You cannot post new topics in this forum
You cannot reply to topics in this forum
You cannot edit your posts in this forum
You cannot delete your posts in this forum
You cannot vote in polls in this forum
You cannot attach files in this forum
You can download files in this forum