Бамблби / Bumblebee (Трэвис Найт / Travis Knight) [2018, Фантастика, боевик, приключения, HDRip] DUB [Лицензия]

Reply to topic

DL-List and Torrent activity
Size:  1.46 GB   |    Registered:  8 months 18 days   |    Completed:  0 times

Seeder not seen: 4 months 13 days

 
 
 
 
Author Message

_Deimos_ ®

VIP пользователь

Gender: Male

Longevity: 1 year 10 months

Posts: 379

Карма: 33000 [+]

Наличие запрета:

[Profile] [PM]

Post 25-Mar-2019 13:28

[Quote]

Бамблби / Bumblebee-
--Год выпуска: 2018
Страна: США
Жанр: Фантастика, боевик, приключения
Продолжительность: 01:53:54
Перевод: Дублированный [Лицензия]--Режиссёр: Трэвис Найт--В ролях: Дилан О`Брайэн, Хейли Стайнфелд, Джастин Теру, Джон Сина, Анджела Бассетт, Памела Адлон, Мегин Прайс, Грей ДеЛайл, Питер Каллен, Кеннет Чои-- : 1987 год. Скрываясь от преследования, Бамблби находит убежище на автомобильной свалке в калифорнийском городке, где живет Чарли. Девушке скоро исполнится 18, она стремится найти свое место в жизни. И именно она наталкивается на покореженного и сломленного Бамблби. Приведя его в чувство, Чарли моментально осознает: на ее пути оказался не простой желтый Фольксваген Жук…-- Качество: HDRip
Формат видео: AVI
Видео: Xvid, 704x400, 23.976 fps, 1379 kb/s
Аудио: AC3, 48.0 kHz, 6 channels, 448 kb/s--

Рейтинг фильма --
General
Complete name : G:\Kino\Bumblebee.2018.HDRip.1.46Gb.DUB.MegaPeer\Bumblebee.2018.HDRip.1.46Gb.DUB.MegaPeer.avi
Format : AVI
Format/Info : Audio Video Interleave
File size : 1.46 GiB
Duration : 1 h 53 min
Overall bit rate : 1 836 kb/s
Writing application : VirtualDubMod 1.5.10.3 | www.virtualdub-fr.org || (build 2550/release)
Writing library : VirtualDubMod build 2550/release
Video
ID : 0
Format : MPEG-4 Visual
Format profile : Advanced Simple@L5
Format settings, BVOP : 1
Format settings, QPel : No
Format settings, GMC : No warppoints
Format settings, Matrix : Custom
Codec ID : XVID
Codec ID/Hint : XviD
Duration : 1 h 53 min
Bit rate : 1 379 kb/s
Width : 704 pixels
Height : 400 pixels
Display aspect ratio : 16:9
Frame rate : 23.976 (24000/1001) FPS
Color space : YUV
Chroma subsampling : 4:2:0
Bit depth : 8 bits
Scan type : Progressive
Compression mode : Lossy
Bits/(Pixel*Frame) : 0.204
Stream size : 1.10 GiB (75%)
Writing library : XviD 73
Audio
ID : 1
Format : AC-3
Format/Info : Audio Coding 3
Format settings, Endianness : Big
Codec ID : 2000
Duration : 1 h 53 min
Bit rate mode : Constant
Bit rate : 448 kb/s
Channel(s) : 6 channels
Channel positions : Front: L C R, Side: L R, LFE
Sampling rate : 48.0 kHz
Frame rate : 31.250 FPS (1536 SPF)
Bit depth : 16 bits
Compression mode : Lossy
Stream size : 365 MiB (24%)
Alignment : Split accross interleaves
Interleave, duration : 42 ms (1.00 video frame)
Interleave, preload duration : 500 ms
Service kind : Complete Main

Release was prepared by RG Cinema



If your ratio falls below 0.3, you will not be able to download Torrents! More about the rating.

[toptorrent.pw].t5718.torrent
Torrent: Registered [ 2019-03-25 13:28 ] · DD2AD72644E453352DA8FB587FDA518572D4D8EF

Download .torrent

Download

15 KB

Status: checked
Completed: 0 times
Size: 1.46 GB
Rate: 
(Vote: 3)
Has thanked: 3  Thanks   (List)
terms.php
Display posts:    
Reply to topic

Current time is: 13-Dec 03:00

All times are UTC + 5



You cannot post new topics in this forum
You cannot reply to topics in this forum
You cannot edit your posts in this forum
You cannot delete your posts in this forum
You cannot vote in polls in this forum
You cannot attach files in this forum
You can download files in this forum