Американский палач / American Hangman (Уилсон Конибер / Wilson Coneybeare) [2019, Триллер, WEB-DLRip] DUB [iTunes]

Reply to topic
 
Author Message

_Deimos_ ®

VIP пользователь

Gender: Male

Longevity: 1 year 2 months

Posts: 292

Карма: 33000 [+]

Location: Топторрент

Наличие запрета:

[Profile] [PM]

Post 25-Mar-2019 13:48

[Quote]

Американский палач / American Hangman- --Год выпуска: 2019
Страна: Канада
Жанр: Триллер
Продолжительность: 01:39:08
Перевод: Дублированный [iTunes]--Режиссёр: Уилсон Конибер--В ролях: Дональд Сазерленд, Винсент Картайзер, Оливер Дэннис, Пол Браунштейн, Пол Амато, Мэтт Барам, Дэн Бирн, Джоэнн Боланд, Александр Краузер, Чарли Эббс-- : Похищение человека, которое транслируют в прямом эфире в социальных сетях, внезапно превращается в разбирательство над судьей, который вынес неверный вердикт в одном из своих прошлых уголовных дел. Однако на этот раз судья становится подсудимым, а роль судьи и присяжных исполняют зрители прямой трансляции и именно им предстоит решать, останется ли он в живых.-- Качество: WEB-DLRip
Формат видео: AVI
Видео: Xvid, 704x288, 23.976 fps, 1568 kb/s
Аудио: AC3, 48.0 kHz, 6 channels, 384 kb/s--

Рейтинг фильма --
General
Complete name : G:\Kino\American.Hangman.2019.WEB-DLRip.ELEKTRI4KA.UNIONGANG.avi
Format : AVI
Format/Info : Audio Video Interleave
Format profile : OpenDML
File size : 1.36 GiB
Duration : 1 h 39 min
Overall bit rate : 1 965 kb/s
Writing application : Lavf57.71.100
Video
ID : 0
Format : MPEG-4 Visual
Format profile : Advanced Simple@L5
Format settings, BVOP : 1
Format settings, QPel : No
Format settings, GMC : No warppoints
Format settings, Matrix : Default (H.263)
Codec ID : XVID
Codec ID/Hint : XviD
Duration : 1 h 39 min
Bit rate : 1 568 kb/s
Width : 704 pixels
Height : 288 pixels
Display aspect ratio : 2.40:1
Frame rate : 23.976 (24000/1001) FPS
Color space : YUV
Chroma subsampling : 4:2:0
Bit depth : 8 bits
Scan type : Progressive
Compression mode : Lossy
Bits/(Pixel*Frame) : 0.323
Stream size : 1.09 GiB (80%)
Writing library : XviD 67
Audio
ID : 1
Format : AC-3
Format/Info : Audio Coding 3
Format settings, Endianness : Big
Codec ID : 2000
Duration : 1 h 39 min
Bit rate mode : Constant
Bit rate : 384 kb/s
Channel(s) : 6 channels
Channel positions : Front: L C R, Side: L R, LFE
Sampling rate : 48.0 kHz
Frame rate : 31.250 FPS (1536 SPF)
Bit depth : 16 bits
Compression mode : Lossy
Stream size : 272 MiB (20%)
Alignment : Aligned on interleaves
Interleave, duration : 32 ms (0.77 video frame)
Service kind : Complete Main

Release was prepared by RG Cinema

Display posts:    
Reply to topic

Current time is: 26-Apr 00:56

All times are UTC + 5



You cannot post new topics in this forum
You cannot reply to topics in this forum
You cannot edit your posts in this forum
You cannot delete your posts in this forum
You cannot vote in polls in this forum
You cannot attach files in this forum
You cannot download files in this forum