Зачистка / Cleaning Up / Сезон 1 / Серии 1-6 из 6 (Льюис Арнольд, Роберт МакКиллоп) [2019 г., Драма, WEB-DLRip] MVO (NewStudio) + Original Eng

Reply to topic

DL-List and Torrent activity
Size:  3.46 GB   |    Registered:  2 months 30 days   |    Completed:  0 times
Seeders:  2  [  0 KB/s  ]   Show peers in full details
 
 
 
 
Author Message

.:Mercury:. ®

Gender: Male

Longevity: 1 year 6 months

Posts: 3493

Карма: 31947 [+]

Наличие запрета:

[Profile] [PM]

Post 25-Mar-2019 14:54

[Quote]

Зачистка / Cleaning Up- -Год выпуска: 2019
Страна: Великобритания, ITV
Жанр: Драма
Продолжительность: ~00:47:00
Перевод: Профессиональный (многоголосый, закадровый) NewStudio--Режиссер: Льюис Арнольд, Роберт МакКиллоп--В ролях: Шеридан Смит, Джейд Аноука, Кристи Филиппс, Док Браун, Уриель Эмиль, Роберт Эммс, Бранка Катич, Нил Мэскелл, Anya McKenna-Bruce, Мэттью МакНалти--Описание: Как бы вы повели себя, если бы определили о том, что сможете разбогатеть так, что денег хватит на всю оставшуюся жизнь? В центре внимания сюжета этого проекта оказывается женщина, которая в любой момент молила лишь об одном: дабы жить отлично и ни в чем не нуждаться. Она - простая уборщица, которая провела солидную часть своей сознательной жизни, пробуя хоть как-то совладать с многочисленными лишениями и жизненными трудностями. Однажды судьба посылает ей возможность поменять все раз и навсегда: главная героиня подслушивает занимательный разговор, разворачивающийся между представителями компании, в которой работает. Речь заходит о незаконной сделке, которую готовы провернуть со дня на сутки. Главная героиня понимает, что сейчас владеет конфиденциальной информацией и готова ею воспользоваться в любую удобную минуту. Терять нечего, исходя из этого Сэм с головой окунается в полную непредсказуемости и темных сторон историю, связанную с торговлей инсайдерской информацией. Она мечтает нормально зажить и обеспечить родных, но знает ли до конца, к чему в итоге ее приведет подобная страшная игра?--Качество: WEB-DLRip
Формат: AVI
Видео кодек: DivX
Аудио кодек: MP3
Видео: XviD, 720x368, 25.000 fps, 1 363 kb/s
Аудио: MPEG-1 Audio layer 3, 129 kbps (CBR), 48.0 KHz, 2 ch | Rus, Eng
General
Complete name : /home/mercury/Видео/Cleaning.Up.s01.WEBDLRip.NewStudio.TV/Cleaning.Up.s01e01.WEBDLRip.NewStudio.TV.avi
Format : AVI
Format/Info : Audio Video Interleave
File size : 550 MiB
Duration : 47 min 4 s
Overall bit rate : 1 634 kb/s
Writing application : VirtualDubMod 1.5.10.2 (build 2540/release)
Writing library : VirtualDubMod build 2540/release
Video
ID : 0
Format : MPEG-4 Visual
Format profile : Advanced Simple@L5
Format settings : BVOP2
Format settings, BVOP : 2
Format settings, QPel : No
Format settings, GMC : No warppoints
Format settings, Matrix : Default (MPEG)
Muxing mode : Packed bitstream
Codec ID : XVID
Codec ID/Hint : XviD
Duration : 47 min 4 s
Bit rate : 1 363 kb/s
Width : 720 pixels
Height : 368 pixels
Display aspect ratio : 1.957
Frame rate : 25.000 FPS
Color space : YUV
Chroma subsampling : 4:2:0
Bit depth : 8 bits
Scan type : Progressive
Compression mode : Lossy
Bits/(Pixel*Frame) : 0.206
Stream size : 459 MiB (83%)
Writing library : XviD 67
Audio #1
ID : 1
Format : MPEG Audio
Format version : Version 1
Format profile : Layer 3
Format settings : Joint stereo / MS Stereo
Codec ID : 55
Codec ID/Hint : MP3
Duration : 47 min 4 s
Bit rate mode : Constant
Bit rate : 128 kb/s
Channel(s) : 2 channels
Sampling rate : 48.0 kHz
Compression mode : Lossy
Stream size : 43.1 MiB (8%)
Alignment : Aligned on interleaves
Interleave, duration : 40 ms (1.00 video frame)
Interleave, preload duration : 504 ms
Audio #2
ID : 2
Format : MPEG Audio
Format version : Version 1
Format profile : Layer 3
Format settings : Joint stereo / MS Stereo
Codec ID : 55
Codec ID/Hint : MP3
Duration : 47 min 4 s
Bit rate mode : Constant
Bit rate : 128 kb/s
Channel(s) : 2 channels
Sampling rate : 48.0 kHz
Frame rate : 41.667 FPS (1152 SPF)
Compression mode : Lossy
Stream size : 43.1 MiB (8%)
Alignment : Aligned on interleaves
Interleave, duration : 40 ms (1.00 video frame)
Interleave, preload duration : 504 ms
Writing library : LAME3.100
Encoding settings : -m j -V 4 -q 2 -lowpass 17 -b 128

Release was prepared by RG Serials



If your ratio falls below 0.3, you will not be able to download Torrents! More about the rating.

[toptorrent.pw].t5720.torrent
Torrent: Registered [ 2019-05-18 16:21 ] · 9F3FE195D2DFA9E86C7875BB2144C26B5DEC31F3

Download .torrent

Download

19 KB

Status: checked
Completed: 0 times
Size: 3.46 GB
Rate: 
(Vote: 1)
Has thanked: 1  Thanks   (List)
terms.php


Last edited by .:Mercury:. on 2019-05-18 16:21; edited 1 time in total

.:Mercury:. ®

Gender: Male

Longevity: 1 year 6 months

Posts: 3493

Карма: 31947 [+]

Наличие запрета:

[Profile] [PM]

Post 19-Apr-2019 14:04 (after 24 days)

[Quote]

+3-я, 4-я и 5-я серия 

.:Mercury:. ®

Gender: Male

Longevity: 1 year 6 months

Posts: 3493

Карма: 31947 [+]

Наличие запрета:

[Profile] [PM]

Post 18-May-2019 16:24 (after 29 days)

[Quote]

+Заключительная серия 
Display posts:    
Reply to topic

Current time is: 18-Aug 02:20

All times are UTC + 5



You cannot post new topics in this forum
You cannot reply to topics in this forum
You cannot edit your posts in this forum
You cannot delete your posts in this forum
You cannot vote in polls in this forum
You cannot attach files in this forum
You can download files in this forum