Для людей / На стороне народа / For the People / Сезон 2 / Серии 1-10 из 10 (Том Верика, Эндрю Бернштейн, Марк Тинкер) [2019 г., Драма, WEB-DLRip] MVO (NewStudio) + Original Eng

Reply to topic

DL-List and Torrent activity
Size:  5.62 GB   |    Registered:  4 months 8 days   |    Completed:  0 times

Seeder not seen: 3 months 4 days

 
 
 
 
Author Message

.:Mercury:. ®

Gender: Male

Longevity: 1 year 8 months

Posts: 3566

Карма: 31947 [+]

Наличие запрета:

[Profile] [PM]

Post 25-Mar-2019 15:14

[Quote]

Для людей / На стороне народа / For the People- -Год выпуска: 2019
Страна: США, ABC
Жанр: Драма
Продолжительность: ~00:44:00
Перевод: Профессиональный (многоголосый, закадровый) NewStudio--Режиссер: Том Верика, Эндрю Бернштейн, Марк Тинкер--В ролях: Джасмин Савой Браун, Весам Киш, Сюзанна Флуд, Бен Шенкман, Бриттани Робертсон, Хоуп Дэвис, Анна Дивер Смит, Бен Раппапорт, Реже-Жан Пэйдж, Вонди Кёртис-Холл, Рахвауния, Анна Хайа--Описание: Юридический процедурал. Рассказ о шести талантливых начинающих юристах, работающих по разные стороны закона над самыми громкими делами. Эти молодые ребята подвергнутся испытаниям как в личной, так и в профессиональной жизни, которая станет надолго связана с работой самого престижного суда Америки.--Качество: WEB-DLRip
Формат: AVI
Видео кодек: XviD
Аудио кодек: MP3
Видео: XviD, 720x400 (16:9), 23.976 (24000/1001) fps, 1 487 kb/s
Аудио: MPEG-1 Audio layer 3, 129 kbps (CBR), 48.0 KHz, 2 ch | Rus, Eng
General
Complete name : /home/mercury/Видео/For.the.People.s02.WEBDLRip.NewStudio.TV/For.the.People.s02e01.WEBDLRip.NewStudio.TV.avi
Format : AVI
Format/Info : Audio Video Interleave
File size : 550 MiB
Duration : 43 min 45 s
Overall bit rate : 1 757 kb/s
Writing application : VirtualDubMod 1.5.10.2 (build 2540/release)
Writing library : VirtualDubMod build 2540/release
Video
ID : 0
Format : MPEG-4 Visual
Format profile : Advanced Simple@L5
Format settings : BVOP2
Format settings, BVOP : 2
Format settings, QPel : No
Format settings, GMC : No warppoints
Format settings, Matrix : Default (MPEG)
Muxing mode : Packed bitstream
Codec ID : XVID
Codec ID/Hint : XviD
Duration : 43 min 45 s
Bit rate : 1 487 kb/s
Width : 720 pixels
Height : 400 pixels
Display aspect ratio : 16:9
Frame rate : 23.976 (24000/1001) FPS
Color space : YUV
Chroma subsampling : 4:2:0
Bit depth : 8 bits
Scan type : Progressive
Compression mode : Lossy
Bits/(Pixel*Frame) : 0.215
Stream size : 466 MiB (85%)
Writing library : XviD 67
Audio #1
ID : 1
Format : MPEG Audio
Format version : Version 1
Format profile : Layer 3
Format settings : Joint stereo / MS Stereo
Codec ID : 55
Codec ID/Hint : MP3
Duration : 43 min 45 s
Bit rate mode : Constant
Bit rate : 128 kb/s
Channel(s) : 2 channels
Sampling rate : 48.0 kHz
Compression mode : Lossy
Stream size : 40.1 MiB (7%)
Alignment : Aligned on interleaves
Interleave, duration : 42 ms (1.00 video frame)
Interleave, preload duration : 504 ms
Audio #2
ID : 2
Format : MPEG Audio
Format version : Version 1
Format profile : Layer 3
Format settings : Joint stereo
Codec ID : 55
Codec ID/Hint : MP3
Duration : 43 min 45 s
Bit rate mode : Constant
Bit rate : 128 kb/s
Channel(s) : 2 channels
Sampling rate : 48.0 kHz
Frame rate : 41.667 FPS (1152 SPF)
Compression mode : Lossy
Stream size : 40.1 MiB (7%)
Alignment : Aligned on interleaves
Interleave, duration : 42 ms (1.00 video frame)
Interleave, preload duration : 504 ms
Writing library : LAME3.100
Encoding settings : -m j -V 4 -q 2 -lowpass 17 -b 128

Release was prepared by RG Serials



If your ratio falls below 0.3, you will not be able to download Torrents! More about the rating.

[toptorrent.pw].t5721.torrent
Torrent: Registered [ 2019-06-07 10:28 ] · FF1A05CB7334F0DE38BAF90F72BF676F56F81252

Download .torrent

Download

29 KB

Status: checked
Completed: 0 times
Size: 5.62 GB
Rate: 
(Vote: 1)
Has thanked: 1  Thanks   (List)
terms.php


Last edited by .:Mercury:. on 2019-06-07 10:28; edited 3 times in total

.:Mercury:. ®

Gender: Male

Longevity: 1 year 8 months

Posts: 3566

Карма: 31947 [+]

Наличие запрета:

[Profile] [PM]

Post 17-Apr-2019 08:17 (after 22 days)

[Quote]

+3-я серия 

.:Mercury:. ®

Gender: Male

Longevity: 1 year 8 months

Posts: 3566

Карма: 31947 [+]

Наличие запрета:

[Profile] [PM]

Post 19-Apr-2019 11:29 (after 2 days 3 hours)

[Quote]

+4-я и 5-я серия 

.:Mercury:. ®

Gender: Male

Longevity: 1 year 8 months

Posts: 3566

Карма: 31947 [+]

Наличие запрета:

[Profile] [PM]

Post 25-May-2019 21:17 (after 1 month 6 days)

[Quote]

+6-я, 7-я, 8-я и 9-я серия 

.:Mercury:. ®

Gender: Male

Longevity: 1 year 8 months

Posts: 3566

Карма: 31947 [+]

Наличие запрета:

[Profile] [PM]

Post 07-Jun-2019 10:29 (after 12 days)

[Quote]

Финальная серия 
Display posts:    
Reply to topic

Current time is: 15-Oct 13:37

All times are UTC + 5



You cannot post new topics in this forum
You cannot reply to topics in this forum
You cannot edit your posts in this forum
You cannot delete your posts in this forum
You cannot vote in polls in this forum
You cannot attach files in this forum
You can download files in this forum