А у нас во дворе / Сезон: 2 / Серии: 1-8 из 8 (Ольга Музалева) [2019, Детектив, драма, HDTVRip]

Reply to topic
DL-List and Torrent activity
Size:  5.78 GB   |    Registered:  2 months 22 days   |    Completed:  0 times

Seeder not seen: 2 months 8 days

 
 
 
 
Author Message

.:Mercury:. ®

Gender: Male

Longevity: 1 year 4 months

Posts: 3330

Карма: 31947 [+]

Наличие запрета:

[Profile] [PM]

Post 25-Mar-2019 23:57

[Quote]

А у нас во дворе- -Год выпуска: 2019
Страна: Россия, АТВ Продакшн
Жанр: Детектив, драма
Продолжительность: 2 х ~ 00:52:00--Режиссёр: Ольга Музалева--В ролях: Сергей Пускепалис, Равшана Куркова, Ирина Луковская, Андрей Заводюк, Екатерина Кирчак, Юрий Черкасов, Александр Чернявский (II), Евгения Бордзиловская, Дарья Белоусова, Сайдо Курбанов, Анна Уколова, Тимур Нижеметдинов, Шохижахон Турсунбаев, Константин Бураев--Описание: Продолжение полюбившегося зрителям детективного сериала о нескучных буднях интернациональной пары: русского экс-полицейского Владимира Каленого и красавицы из Узбекистана Мавлюды. Несмотря на разницу менталитетов и вытекающее из неё частое недопонимание, Каленый и Мавлюда — не только харизматичная пара, но и отличная команда, способная раскрыть любое преступление…--Качество видео: HDTVRip
Формат: AVI-Видео: XviD, 720x368, 25.000 fps, 1 901 kb/s
Аудио: AC-3, 48.0 kHz, 31.250 fps (1536 spf), 16 bits, 192 kb/s, 2ch
General
Complete name : /home/mercury/Видео/A u nas vo dvore 2.HDTVRip.GeneralFilm/01.A u nas vo dvore 2.HDTVRip.GeneralFilm.avi
Format : AVI
Format/Info : Audio Video Interleave
File size : 748 MiB
Duration : 52 min 35 s
Overall bit rate : 1 989 kb/s
Writing application : VirtualDubMod 1.5.10.3 | www.virtualdub-fr.org || (build 2550/release)
Writing library : VirtualDubMod build 2550/release
IsTruncated : Yes
Video
ID : 0
Format : MPEG-4 Visual
Format profile : Advanced Simple@L5
Format settings : BVOP1 / Custom Matrix
Format settings, BVOP : 1
Format settings, QPel : No
Format settings, GMC : No warppoints
Format settings, Matrix : Custom
Codec ID : XVID
Codec ID/Hint : XviD
Duration : 52 min 35 s
Source duration : 14 min 46 s
Bit rate : 1 901 kb/s
Width : 720 pixels
Height : 368 pixels
Display aspect ratio : 1.957
Frame rate : 25.000 FPS
Color space : YUV
Chroma subsampling : 4:2:0
Bit depth : 8 bits
Scan type : Progressive
Compression mode : Lossy
Bits/(Pixel*Frame) : 0.287
Stream size : 201 MiB (27%)
Writing library : XviD 1.2.1 (UTC 2008-12-04)
Audio
ID : 1
Format : AC-3
Format/Info : Audio Coding 3
Commercial name : Dolby Digital
Codec ID : 2000
Duration : 52 min 35 s
Source duration : 14 min 46 s
Bit rate mode : Constant
Bit rate : 192 kb/s
Channel(s) : 2 channels
Channel layout : L R
Sampling rate : 48.0 kHz
Frame rate : 31.250 FPS (1536 SPF)
Bit depth : 16 bits
Compression mode : Lossy
Stream size : 20.3 MiB (3%)
Alignment : Split accross interleaves
Interleave, duration : 40 ms (1.00 video frame)
Interleave, preload duration : 500 ms
Service kind : Complete Main

Release was prepared by RG Serials

If your ratio falls below 0.3, you will not be able to download Torrents! More about the rating.

[toptorrent.pw].t5724.torrent
Torrent: Registered [ 2019-03-29 08:39 ] · DBD3E79EF02365A2C9F480F92387DE7F0F8EDDBE

Download .torrent

Download

59 KB

Status: checked
Completed: 0 times
Size: 5.78 GB
Rate: 
(Vote: 4)
Has thanked: 4  Thanks   (List)
terms.php


Last edited by .:Mercury:. on 2019-03-29 08:39; edited 1 time in total

.:Mercury:. ®

Gender: Male

Longevity: 1 year 4 months

Posts: 3330

Карма: 31947 [+]

Наличие запрета:

[Profile] [PM]

Post 28-Mar-2019 15:08 (after 2 days 15 hours)

[Quote]

+3-я, 4-я, 5-я и 6-я серия

.:Mercury:. ®

Gender: Male

Longevity: 1 year 4 months

Posts: 3330

Карма: 31947 [+]

Наличие запрета:

[Profile] [PM]

Post 29-Mar-2019 08:42 (after 17 hours)

[Quote]

+ Заключительные серии
Display posts:    
Reply to topic

Current time is: 20-Jun 23:18

All times are UTC + 5



You cannot post new topics in this forum
You cannot reply to topics in this forum
You cannot edit your posts in this forum
You cannot delete your posts in this forum
You cannot vote in polls in this forum
You cannot attach files in this forum
You can download files in this forum