Падение Ордена / Knightfall / Сезон 2 / Серии 1-8 из 10 (Дуглас Маккиннон, Метин Хусейн, Дэвид Петрарка) [2019 г., Драма, Исторический, WEB-DL1080p] MVO (LostFilm) + Original Eng

Reply to topic
DL-List and Torrent activity
Size:  18.84 GB   |    Registered:  3 days   |    Completed:  0 times
Seeders:  11  [  0 KB/s  ]   Leechers:  2  [  0 KB/s  ]   Show peers in full details
   
 
Author Message

.:Mercury:. ®

Gender: Male

Longevity: 1 year 3 months

Posts: 3179

Карма: 31947 [+]

Наличие запрета:

[Profile] [PM]

Post 29-Mar-2019 12:30

[Quote]

Падение Ордена / Knightfall- -Год выпуска: 2019
Страна: США, History Channel, A+E Studios, Midnight Radio, Stillking Films
Жанр: Драма, Исторический
Продолжительность: ~00:45:00
Перевод: Профессиональный (многоголосый, закадровый) LostFilm--Режиссер: Дуглас Маккиннон, Метин Хусейн, Дэвид Петрарка--В ролях: Том Каллен, Падрейк Делани, Саймон Мерреллс, Оливия Росс, Джулиан Овенден, Эд Стоппард, Сабрина Бартлетт, Бобби Шофилд, Сара-Софи Бусснина, Нассер Мемарзиа--Описание: Долгое время тамплиеры считались самым сильным и богатым орденом из всех существовавших в эпоху Средневековья. Совершая Крестовые походы, воины Христа получали плодородные земли, небывалые юридические и церковные привилегии. Однако в 1291 году иноверцы захватывают Акру — последнюю цитадель крестоносцев на Святой земле. С этого момента между политикой и верой вырастает высокая стена, а страх и недоверие приводят к падению ордена. Глава Ватикана Климент V и французский монарх Филипп IV начинают преследования оставшихся в живых рыцарей. Спустя годы после захвата Акры, 13 октября 1307 года, в пятницу, именем святой инквизиции производятся аресты воинов Христа во главе с Жаком де Моле (Дэвид Стерн). До момента, как через семь лет магистр братства вызовет на Божий суд самих короля и папу римского, лидеру крестоносцев Ландри (Том Каллен) предстоит бросить все силы на поиски святого Грааля и выяснить, какие тайны орден готов унести с собой в могилу...--Доп. информация: «Падение ордена» — исторический сериал в жанре остросюжетной драмы, над которым работали сразу две страны: США и Чехия. Руководство канала History, подарившее зрителям приключения викингов, решило сменить кожаные одеяния скандинавских воинов на кольчугу защитников Святой земли и приоткрыть завесу тайны над истреблением тамплиеров. Съемки нового проекта доверили Дугласу Маккиннону («Холистическое детективное агентство Дирка Джентли») и Дэвиду Петрарке, знакомому c исторической тематикой по шоу о путешествиях легендарного венецианского торговца Марко Поло. «Падение ордена» с первых кадров овладеет вниманием любителей интриг и качественных военных сражений, а реальная историческая подоплека разбудит желание как можно больше узнать об эпохе Климента V и Филиппа IV — периоде, положившем конец рыцарям Христа. --Качество: WEB-DL 1080p
Формат: MKV
Видео кодек: H.264
Аудио кодек: AC3
Видео: AVC, 1920x1080 (16:9), 23.976 (24000/1001) fps, 6 800 kb/s
Аудио#1: AC-3, 48.0 kHz, 31.250 fps (1536 spf), 16 bits, 384 kb/s, 2ch | Rus
Аудио#2: AC-3, 48.0 kHz, 31.250 fps (1536 spf), 16 bits, 384 kb/s, 2ch | Eng
General
Unique ID : 171801010017421859029368841341950990411 (0x813FABC47BCFDB6C844F1880B3AB984B)
Complete name : /media/mercury/D/Knightfall.S02E01.1080p.rus.LostFilm.TV.mkv
Format : Matroska
Format version : Version 4 / Version 2
File size : 2.40 GiB
Duration : 45 min 29 s
Overall bit rate : 7 552 kb/s
Encoded date : UTC 2019-03-28 20:24:11
Writing application : mkvmerge v9.5.0 ('Quiet Fire') 64bit
Writing library : libebml v1.3.4 + libmatroska v1.4.5
Video
ID : 1
Format : AVC
Format/Info : Advanced Video Codec
Format profile : High@L4.1
Format settings : CABAC / 4 Ref Frames
Format settings, CABAC : Yes
Format settings, ReFrames : 4 frames
Codec ID : V_MPEG4/ISO/AVC
Duration : 45 min 29 s
Bit rate : 6 800 kb/s
Width : 1 920 pixels
Height : 1 080 pixels
Display aspect ratio : 16:9
Frame rate mode : Constant
Frame rate : 23.976 (24000/1001) FPS
Original frame rate : 23.976 (23976/1000) FPS
Color space : YUV
Chroma subsampling : 4:2:0
Bit depth : 8 bits
Scan type : Progressive
Bits/(Pixel*Frame) : 0.137
Stream size : 2.16 GiB (90%)
Writing library : x264 core 112 r1834 a51816a
Encoding settings : cabac=1 / ref=4 / deblock=1:-3:-2 / analyse=0x3:0x113 / me=hex / subme=7 / psy=1 / psy_rd=1.00:0.00 / mixed_ref=1 / me_range=16 / chroma_me=1 / trellis=1 / 8x8dct=1 / cqm=0 / deadzone=21,11 / fast_pskip=1 / chroma_qp_offset=-2 / threads=6 / sliced_threads=0 / nr=0 / decimate=1 / interlaced=0 / constrained_intra=0 / bframes=5 / b_pyramid=2 / b_adapt=1 / b_bias=0 / direct=1 / weightb=1 / open_gop=0 / weightp=2 / keyint=250 / keyint_min=25 / scenecut=40 / intra_refresh=0 / rc_lookahead=40 / rc=2pass / mbtree=1 / bitrate=6800 / ratetol=1.0 / qcomp=0.60 / qpmin=0 / qpmax=51 / qpstep=4 / cplxblur=20.0 / qblur=0.5 / vbv_maxrate=10000 / vbv_bufsize=256000 / ip_ratio=1.40 / aq=1:1.00 / nal_hrd=none
Default : Yes
Forced : No
Audio #1
ID : 2
Format : AC-3
Format/Info : Audio Coding 3
Codec ID : A_AC3
Duration : 45 min 28 s
Bit rate mode : Constant
Bit rate : 384 kb/s
Channel(s) : 2 channels
Channel positions : Front: L R
Sampling rate : 48.0 kHz
Frame rate : 31.250 FPS (1536 SPF)
Bit depth : 16 bits
Compression mode : Lossy
Stream size : 125 MiB (5%)
Service kind : Complete Main
Default : Yes
Forced : No
Audio #2
ID : 3
Format : AC-3
Format/Info : Audio Coding 3
Codec ID : A_AC3
Duration : 45 min 29 s
Bit rate mode : Constant
Bit rate : 384 kb/s
Channel(s) : 2 channels
Channel positions : Front: L R
Sampling rate : 48.0 kHz
Frame rate : 31.250 FPS (1536 SPF)
Bit depth : 16 bits
Compression mode : Lossy
Stream size : 125 MiB (5%)
Service kind : Complete Main
Default : No
Forced : No

Release was prepared by RG Serials

If your ratio falls below 0.3, you will not be able to download Torrents! More about the rating.

[toptorrent.pw].t5728.torrent
Torrent: Registered [ 2019-05-17 09:15 ] · EFF32AD9BBC66C977AD12974E6BAF9EA33514A1D

Download .torrent

Download

95 KB

Status: T temporary
Completed: 0 times
Size: 18.84 GB
Rate: 
(Vote: 0)
Has thanked: 0  Thanks
terms.php


Last edited by .:Mercury:. on 2019-05-17 09:15; edited 5 times in total

.:Mercury:. ®

Gender: Male

Longevity: 1 year 3 months

Posts: 3179

Карма: 31947 [+]

Наличие запрета:

[Profile] [PM]

Post 05-Apr-2019 14:44 (after 7 days)

[Quote]

+ 2-я серия

.:Mercury:. ®

Gender: Male

Longevity: 1 year 3 months

Posts: 3179

Карма: 31947 [+]

Наличие запрета:

[Profile] [PM]

Post 20-Apr-2019 02:13 (after 14 days)

[Quote]

+3-я и 4-я серия

.:Mercury:. ®

Gender: Male

Longevity: 1 year 3 months

Posts: 3179

Карма: 31947 [+]

Наличие запрета:

[Profile] [PM]

Post 26-Apr-2019 10:26 (after 6 days)

[Quote]

+5-я серия

.:Mercury:. ®

Gender: Male

Longevity: 1 year 3 months

Posts: 3179

Карма: 31947 [+]

Наличие запрета:

[Profile] [PM]

Post 03-May-2019 10:17 (after 6 days)

[Quote]

+6-я серпия

.:Mercury:. ®

Gender: Male

Longevity: 1 year 3 months

Posts: 3179

Карма: 31947 [+]

Наличие запрета:

[Profile] [PM]

Post 10-May-2019 16:19 (after 7 days)

[Quote]

+7-я серия

.:Mercury:. ®

Gender: Male

Longevity: 1 year 3 months

Posts: 3179

Карма: 31947 [+]

Наличие запрета:

[Profile] [PM]

Post 17-May-2019 09:16 (after 6 days)

[Quote]

+8-я серия
Display posts:    
Reply to topic

Current time is: 20-May 17:25

All times are UTC + 5



You cannot post new topics in this forum
You cannot reply to topics in this forum
You cannot edit your posts in this forum
You cannot delete your posts in this forum
You cannot vote in polls in this forum
You cannot attach files in this forum
You can download files in this forum