Подкидыш / Сезон 1 / Серии 1-12 из 12 (Антон Борматов) [2019 г., Детектив, SATRip]

Reply to topic
DL-List and Torrent activity
Size:  8.42 GB   |    Registered:  2 months 14 days   |    Completed:  0 times
Seeders:  4  [  0 KB/s  ]   Leechers:  2  [  0 KB/s  ]   Show peers in full details
   
 
Author Message

.:Mercury:. ®

Gender: Male

Longevity: 1 year 4 months

Posts: 3330

Карма: 31947 [+]

Наличие запрета:

[Profile] [PM]

Post 01-Apr-2019 19:16

[Quote]

Подкидыш- -Год выпуска: 2019
Страна: Россия
Жанр: Детектив
Продолжительность: ~00:51:00--Режиссер: Антон Борматов--В ролях: Антон Шагин, Тимофей Трибунцев, Аглая Тарасова, Евгений Антропов, Сергей Барковский, Семён Шкаликов, Николай Шрайбер, Владимир Глазков, Алексей Фролов, Вероника Голина, Алексей Федькин, Игорь Грабузов, Илья Носков, Степан Бекетов, Александр Ткачев, Макар Кусакин, Эрик Яралов--Описание: 1926 год. Разгар НЭПа. Новгородский жулик Подкидыш, убегая от местных бандитов, попадает в Ленинград. Сотрудники милиции по ошибке принимают его за известного сыщика, которого недавно назначили начальником отдела УГРО. Подкидыш планирует незаметно исчезнуть, но, узнав, что в городе есть большой склад дорогих улик и экспроприированных вещей, решает не торопиться. Ограбить помещение, имея на руках удостоверение милиционера, довольно легко, и преступник продумывает похищение…--Качество: SATRip
Формат: AVI
Видео кодек: XviD
Аудио кодек: MP3
Видео: XviD, 704x448 (16:10), 25.000 fps, 1 800 kb/s
Аудио: MP3, 48.0 kHz, 41.667 fps (1152 spf), 192 kb/s, 2ch
General
Complete name : /media/mercury/D/Podkidyshch.SATRip/Podkidyshch.01.SATRip.avi
Format : AVI
Format/Info : Audio Video Interleave
File size : 675 MiB
Duration : 48 min 42 s
Overall bit rate : 1 938 kb/s
Writing application : VirtualDubMod 1.5.10.3 | www.virtualdub-fr.org || (build 2550/release)
Writing library : VirtualDubMod build 2550/release
Video
ID : 0
Format : MPEG-4 Visual
Format profile : Advanced Simple@L5
Format settings : BVOP2
Format settings, BVOP : 2
Format settings, QPel : No
Format settings, GMC : No warppoints
Format settings, Matrix : Default (H.263)
Codec ID : XVID
Codec ID/Hint : XviD
Duration : 48 min 42 s
Bit rate : 1 800 kb/s
Width : 704 pixels
Height : 448 pixels
Display aspect ratio : 16:10
Frame rate : 25.000 FPS
Color space : YUV
Chroma subsampling : 4:2:0
Bit depth : 8 bits
Scan type : Progressive
Compression mode : Lossy
Bits/(Pixel*Frame) : 0.228
Stream size : 627 MiB (93%)
Writing library : XviD 1.2.1 (UTC 2008-12-04)
Audio
ID : 1
Format : MPEG Audio
Format version : Version 1
Format profile : Layer 3
Format settings : Joint stereo / MS Stereo
Codec ID : 55
Codec ID/Hint : MP3
Duration : 48 min 42 s
Bit rate mode : Constant
Bit rate : 128 kb/s
Channel(s) : 2 channels
Sampling rate : 48.0 kHz
Frame rate : 41.667 FPS (1152 SPF)
Compression mode : Lossy
Stream size : 44.6 MiB (7%)
Alignment : Aligned on interleaves
Interleave, duration : 40 ms (1.00 video frame)
Interleave, preload duration : 504 ms
Writing library : LAME3.99r
Encoding settings : -m j -V 4 -q 9 -lowpass 17 -b 128

Release was prepared by RG Serials

If your ratio falls below 0.3, you will not be able to download Torrents! More about the rating.

[toptorrent.pw].t5740.torrent
Torrent: Registered [ 2019-04-06 15:21 ] · 6FDF36C9A5E1188558B6B1D9B52BC6916613D062

Download .torrent

Download

86 KB

Status: checked
Completed: 0 times
Size: 8.42 GB
Rate: 
(Vote: 4)
Has thanked: 4  Thanks   (List)
terms.php


Last edited by .:Mercury:. on 2019-04-06 15:21; edited 4 times in total

.:Mercury:. ®

Gender: Male

Longevity: 1 year 4 months

Posts: 3330

Карма: 31947 [+]

Наличие запрета:

[Profile] [PM]

Post 02-Apr-2019 17:35 (after 22 hours)

[Quote]

+3-я серия

.:Mercury:. ®

Gender: Male

Longevity: 1 year 4 months

Posts: 3330

Карма: 31947 [+]

Наличие запрета:

[Profile] [PM]

Post 02-Apr-2019 19:47 (after 2 hours 11 minutes)

[Quote]

+4-я серия

.:Mercury:. ®

Gender: Male

Longevity: 1 year 4 months

Posts: 3330

Карма: 31947 [+]

Наличие запрета:

[Profile] [PM]

Post 03-Apr-2019 20:26 (after 1 day)

[Quote]

+5-я и 6-я серия

.:Mercury:. ®

Gender: Male

Longevity: 1 year 4 months

Posts: 3330

Карма: 31947 [+]

Наличие запрета:

[Profile] [PM]

Post 04-Apr-2019 19:41 (after 23 hours)

[Quote]

+7-я и 8-я серия

.:Mercury:. ®

Gender: Male

Longevity: 1 year 4 months

Posts: 3330

Карма: 31947 [+]

Наличие запрета:

[Profile] [PM]

Post 06-Apr-2019 15:25 (after 1 day 19 hours)

[Quote]

+Заключительные серии
Display posts:    
Reply to topic

Current time is: 20-Jun 22:25

All times are UTC + 5



You cannot post new topics in this forum
You cannot reply to topics in this forum
You cannot edit your posts in this forum
You cannot delete your posts in this forum
You cannot vote in polls in this forum
You cannot attach files in this forum
You can download files in this forum