Риддик: Трилогия / Riddick: Trilogy (Дэвид Туи) [2000, 2004, 2013 г.,Фантастика, Боевик, Триллер, BDRip, HDRip, WEB-DLRip]

Reply to topic
DL-List and Torrent activity
Size:  4.38 GB   |    Registered:  19 days   |    Completed:  0 times
Seeders:  1  [  0 KB/s  ]   Show peers in full details
 
 
 
 
Author Message

_Deimos_ ®

VIP пользователь

Gender: Male

Longevity: 1 year 2 months

Posts: 292

Карма: 33000 [+]

Location: Топторрент

Наличие запрета:

[Profile] [PM]

Post 06-Apr-2019 18:43

[Quote]



-- Год выпуска: 2000
Страна: США
Жанр: Фантастика, боевик, триллер
Продолжительность: 01:43:55
Перевод: Профессиональный дублирование--Режиссер: Дэвид Туи--В ролях: Вин Дизель, Рада Митчел, Коул Хаузер, Кит Дэвид, Льюис Фиц-Джералд, Клаудия Блэк, Риана Гриффит, Джон Мур, Саймон Бурк, Лес Чэнтери-- В недалеком будущем космический корабль терпит бедствие, в результате чего совершает вынужденную посадку на отдаленной планете. Но в результате такой посадки погибает командир корабля, часть команды и большинство пассажиров. Оставшиеся в живых оказываются одни на жуткой и безжизненной планете. Первое, что бросается в глаза — это то, что планета имеет три солнца, из-за чего все живое погибает в этой пустыне. Но как только планета погружается в темноту, появляются какие-то странные существа…-- Качество: BDRip
Формат видео: AVI
Видео кодек: Xvid, 720x304, 25 fps, 1614 kb/s
Аудио кодек: AC3, 48.0 kHz, 6 channels, 384 kb/s--

Рейтинг фильма --
General
Complete name : F:\Kino\Фантастические и комикси\Риддик Трилогия\2000. Черная Дыра - Кромешная тьма..avi
Format : AVI
Format/Info : Audio Video Interleave
File size : 1.46 GiB
Duration : 1 h 43 min
Overall bit rate : 2 008 kb/s
Movie name : Черная дыра / Pitch Black (2000)
Director : Sh@d0w
Genre : Horror | Sci-Fi | Thriller
Writing application : VirtualDubModRus 1.5.10.2 (build 2542/release)
Comment : BDRip (Source: BDRemux)
Video
ID : 0
Format : MPEG-4 Visual
Format profile : Advanced Simple@L5
Format settings, BVOP : 2
Format settings, QPel : No
Format settings, GMC : No warppoints
Format settings, Matrix : Custom
Codec ID : XVID
Codec ID/Hint : XviD
Duration : 1 h 43 min
Bit rate : 1 614 kb/s
Width : 720 pixels
Height : 304 pixels
Display aspect ratio : 2.35:1
Frame rate : 25.000 FPS
Color space : YUV
Chroma subsampling : 4:2:0
Bit depth : 8 bits
Scan type : Progressive
Compression mode : Lossy
Bits/(Pixel*Frame) : 0.295
Stream size : 1.17 GiB (80%)
Writing library : XviD 1.2.1 (UTC 2008-12-04)
Audio
ID : 1
Format : AC-3
Format/Info : Audio Coding 3
Format settings, Endianness : Big
Codec ID : 2000
Duration : 1 h 43 min
Bit rate mode : Constant
Bit rate : 384 kb/s
Channel(s) : 6 channels
Channel positions : Front: L C R, Side: L R, LFE
Sampling rate : 48.0 kHz
Frame rate : 31.250 FPS (1536 SPF)
Bit depth : 16 bits
Compression mode : Lossy
Stream size : 285 MiB (19%)
Alignment : Split accross interleaves
Interleave, duration : 40 ms (1.00 video frame)
Interleave, preload duration : 500 ms
Title : дубляж
Service kind : Complete Main

-- Год выпуска: 2004
Страна: США
Жанр: Фантастика, боевик, триллер
Продолжительность: 02:14:06
Перевод: Профессиональный дублирование--Режиссер: Дэвид Туи--В ролях: Вин Дизель, Колм Фиори, Тэнди Ньютон, Джуди Денч, Карл Урбан, Алекса Давалос, Лайнес Роуч, Йорик ван Вагенинген, Ник Чинланд, Кейт Дэвид-- Последние пять лет Риддик провел в бегах среди забытых миров на задворках галактики, прячась от наемников, назначивших цену за его голову. Теперь беглец оказался на планете Гелион, где живет прогрессивное многонациональное общество, завоеванное лордом Маршалом, фанатиком, решившим поработить человечество армадой своих воинов, некромонгеров. Совершив побег из подземной тюрьмы, где температура колебалась от арктических ночей до вулканических дней, Риддик встречает Кайру, последнюю оставшуюся в живых женщину из раннего периода его жизни. Его попытки освободить себя и Кайру приводят их на борт главного корабля некромонгеров, где ему предстоит столкнуться с лордом Маршалом в апокалиптической битве не на жизнь, а на смерть.-- Качество: HDRip
Формат видео: AVI
Видео кодек: Xvid, 720x304, 23.976 fps, 1354 kb/s
Аудио кодек: AC3, 48.0 kHz, 2 channels, 192 kb/s--

Рейтинг фильма --
General
Complete name : F:\Kino\Фантастические и комикси\Риддик Трилогия\2004. Хроники Риддика..avi
Format : AVI
Format/Info : Audio Video Interleave
File size : 1.46 GiB
Duration : 2 h 14 min
Overall bit rate : 1 555 kb/s
Movie name : Hroniki.Riddika.DC.2004.DUB.HDRip.XviD_Vaippp
Director : Release by Vaippp
Genre : Adventure
Writing application : VirtualDubModRus 1.5.10.2 (build 2542/release)
Original source form/Name : Movie
Comment : HDRip
Video
ID : 0
Format : MPEG-4 Visual
Format profile : Advanced Simple@L5
Format settings, BVOP : 2
Format settings, QPel : No
Format settings, GMC : No warppoints
Format settings, Matrix : Custom
Codec ID : XVID
Codec ID/Hint : XviD
Duration : 2 h 14 min
Bit rate : 1 354 kb/s
Width : 720 pixels
Height : 304 pixels
Display aspect ratio : 2.35:1
Frame rate : 23.976 (24000/1001) FPS
Color space : YUV
Chroma subsampling : 4:2:0
Bit depth : 8 bits
Scan type : Progressive
Compression mode : Lossy
Bits/(Pixel*Frame) : 0.258
Stream size : 1.27 GiB (87%)
Writing library : XviD 1.2.1 (UTC 2008-12-04)
Audio
ID : 1
Format : AC-3
Format/Info : Audio Coding 3
Format settings, Endianness : Big
Codec ID : 2000
Duration : 2 h 14 min
Bit rate mode : Constant
Bit rate : 192 kb/s
Channel(s) : 2 channels
Channel positions : Front: L R
Sampling rate : 48.0 kHz
Frame rate : 31.250 FPS (1536 SPF)
Bit depth : 16 bits
Compression mode : Lossy
Stream size : 184 MiB (12%)
Alignment : Split accross interleaves
Interleave, duration : 42 ms (1.00 video frame)
Interleave, preload duration : 500 ms
Service kind : Complete Main

-- Год выпуска: 2013
Страна: США
Жанр: Фантастика, боевик, триллер
Продолжительность: 02:06:48
Перевод: Профессиональный дублирование--Режиссер: Дэвид Туи--В ролях: Вин Дизель, Хорди Молья, Мэттью Нэйбл, Кэти Сакхофф, Дэйв Батиста, Букем Вудбайн, Рауль Трухильо, Конрад Пла, Дэнни Бланко, Карл Урбан, Ноа Дэнби, Нил Напье, Нолан Фанк, Андреас Апергис, Кери Хилсон, Шарли Мари Дюпон, Ян Герсте, Антуанетта Никпрелаж, Александра Соколовская-- Преданный своими и брошенный умирать на пустынной планете, Риддик сражается с хищниками за жизнь и становится сильнее и опаснее себя прежнего. Открывшие на него охоту галактические наемники оказываются пешками в грандиозном плане отмщения. С врагами, возникающими на его пути тогда, когда это нужно самому Риддику, он начинает поход во имя мести.-- Качество: WEB-DLRip
Формат видео: AVI
Видео кодек: Xvid, 720x304, 23.976 fps, 1450 kb/s
Аудио кодек: AC3, 48.0 kHz, 2 channels, 192 kb/s--

Рейтинг фильма --
General
Complete name : F:\Kino\Фантастические и комикси\Риддик Трилогия\2013. Риддик..avi
Format : AVI
Format/Info : Audio Video Interleave
File size : 1.46 GiB
Duration : 2 h 6 min
Overall bit rate : 1 651 kb/s
Movie name : Riddick 2013. Extended Cut
Director : David Neil Twohy
Recorded date : 03.03.2014
Writing application : VirtualDubModRus 1.5.10.2 (build 2542/release)
Writing library : VirtualDubMod build 2542/release
Copyright : Rutracker.org
Comment : MooN_WalkeR
Video
ID : 0
Format : MPEG-4 Visual
Format profile : Advanced Simple@L5
Format settings, BVOP : 1
Format settings, QPel : No
Format settings, GMC : No warppoints
Format settings, Matrix : Custom
Codec ID : XVID
Codec ID/Hint : XviD
Duration : 2 h 6 min
Bit rate : 1 450 kb/s
Width : 720 pixels
Height : 304 pixels
Display aspect ratio : 2.35:1
Frame rate : 23.976 (24000/1001) FPS
Original frame rate : 23.976 (23976/1000) FPS
Color space : YUV
Chroma subsampling : 4:2:0
Bit depth : 8 bits
Scan type : Progressive
Compression mode : Lossy
Bits/(Pixel*Frame) : 0.276
Stream size : 1.28 GiB (88%)
Writing library : XviD 65
Audio
ID : 1
Format : AC-3
Format/Info : Audio Coding 3
Format settings, Endianness : Big
Codec ID : 2000
Duration : 2 h 6 min
Bit rate mode : Constant
Bit rate : 192 kb/s
Channel(s) : 2 channels
Channel positions : Front: L R
Sampling rate : 48.0 kHz
Frame rate : 31.250 FPS (1536 SPF)
Bit depth : 16 bits
Compression mode : Lossy
Stream size : 174 MiB (12%)
Alignment : Split accross interleaves
Interleave, duration : 42 ms (1.00 video frame)
Interleave, preload duration : 500 ms
Title : Dub+DVO
Service kind : Complete Main

Release was prepared by RG Cinema

If your ratio falls below 0.3, you will not be able to download Torrents! More about the rating.

[toptorrent.pw].t5749.torrent
Torrent: Registered [ 2019-04-06 18:43 ] · DF2344279EA639714C5FE38D2E022F3B976CA20D

Download .torrent

Download

12 KB

Status: checked
Completed: 0 times
Size: 4.38 GB
Rate: 
(Vote: 1)
Has thanked: 1  Thanks   (List)
terms.php
Display posts:    
Reply to topic

Current time is: 26-Apr 00:57

All times are UTC + 5



You cannot post new topics in this forum
You cannot reply to topics in this forum
You cannot edit your posts in this forum
You cannot delete your posts in this forum
You cannot vote in polls in this forum
You cannot attach files in this forum
You can download files in this forum