Воин / Warrior / Сезон 1 / Серии 1-10 из 10 (Лони Перистер, Лин Одинг, Дэвид Петрарка, Асаф Бернштейн, Кевин Танчароэн) [2019г., боевик, драма, история, WEB-DL 1080p] MVO (Кириллица) + Original Eng + Sub Rus, Eng

Reply to topic
DL-List and Torrent activity
Size:  23.31 GB   |    Registered:  10 days   |    Completed:  1 time
Seeders:  14  [  0 KB/s  ]   Leechers:  5  [  0 KB/s  ]   Show peers in full details
   
 
Author Message

.:Mercury:. ®

Gender: Male

Longevity: 1 year 4 months

Posts: 3330

Карма: 31947 [+]

Наличие запрета:

[Profile] [PM]

Post 08-Apr-2019 09:48

[Quote]

Воин / Warrior- -Год выпуска: 2019
Страна: США
Жанр: боевик, драма, история
Продолжительность: ~01:00:00
Перевод: Профессиональный (многоголосый, закадровый) Кириллица по заказу Amedia--Режиссер: Лони Перистер, Лин Одинг, Дэвид Петрарка, Асаф Бернштейн, Кевин Танчароэн--В ролях: Джейсон Дж. Тобин, Эндрю Кодзи, Оливия Ченг, Киран Бью, Дайян Доан, Дин Джаггер III, Лэнгли Кирквуд, Перри Юнг, Райан Крюгер, Рич Тинг--Описание: Сериал основан на оригинальной идее Брюса Ли. В 1890-х годах город Сан-Франциско страдал от коррупции и мафии. В китайском квартале Сан-Франциско междоусобные войны достигли особого размаха. В это неспокойное время в город из Китая прибывает молодой мастер восточных единоборств А Сам (Ah Sahm). Молодой человек тут же оказывается втянутым в кровавые разборки между двумя опасными соперничающими друг с другом группировками Тонг в Чайнатауне. А Сам подвергает себя смертельной опасности, после того как план мести, который он готовил не один год, становится известен его врагам.--Качество: WEB-DL 1080p | NTb
Формат: MKV
Видео кодек: H.264
Аудио кодек: AC3
Видео: 1920x1080 at 23.976 fps, MPEG-4 AVC, ~6762 kbps avg
Аудио#1: Russian: 48 kHz, AC3, 3/2 (L,C,R,l,r) + LFE ch, ~640 kbps avg
Аудио#2: English: 48 kHz, E-AC3, 3/2 (L,C,R,l,r) + LFE ch, ~640 kbps avg
Cубтитры: русские (Forced, Full), английские (SDH)
General
Unique ID : 339169786196789714793929952972383376090 (0xFF29B989014BF26C564773B2E4BED2DA)
Complete name : /media/mercury/D/Warrior.2019.S01.1080p.AMZN.WEB-DL.DDP5.1.H.264-EniaHD/Warrior.2019.S01E01.The.Itchy.Onion.1080p.AMZN.WEB-DL.DDP5.1.H.264-EniaHD.mkv
Format : Matroska
Format version : Version 4 / Version 2
File size : 3.42 GiB
Duration : 1 h 0 min
Overall bit rate : 8 045 kb/s
Movie name : Warrior.2019.S01E01.The.Itchy.Onion.1080p.AMZN.WEB-DL.DDP5.1.H.264-EniaHD
Encoded date : UTC 2019-04-07 19:39:08
Writing application : mkvmerge v32.0.0 ('Astral Progressions') 64-bit
Writing library : libebml v1.3.7 + libmatroska v1.5.0
Video
ID : 1
Format : AVC
Format/Info : Advanced Video Codec
Format profile : High@L4
Format settings : CABAC / 4 Ref Frames
Format settings, CABAC : Yes
Format settings, ReFrames : 4 frames
Codec ID : V_MPEG4/ISO/AVC
Duration : 1 h 0 min
Bit rate mode : Constant
Bit rate : 6 762 kb/s
Nominal bit rate : 10 000 kb/s
Width : 1 920 pixels
Height : 1 080 pixels
Display aspect ratio : 16:9
Frame rate mode : Constant
Frame rate : 23.976 (24000/1001) FPS
Color space : YUV
Chroma subsampling : 4:2:0
Bit depth : 8 bits
Scan type : Progressive
Bits/(Pixel*Frame) : 0.136
Stream size : 2.88 GiB (84%)
Default : Yes
Forced : No
Color range : Limited
Color primaries : BT.709
Transfer characteristics : BT.709
Matrix coefficients : BT.709
Audio #1
ID : 2
Format : AC-3
Format/Info : Audio Coding 3
Codec ID : A_AC3
Duration : 1 h 0 min
Bit rate mode : Constant
Bit rate : 640 kb/s
Channel(s) : 6 channels
Channel positions : Front: L C R, Side: L R, LFE
Sampling rate : 48.0 kHz
Frame rate : 31.250 FPS (1536 SPF)
Bit depth : 16 bits
Compression mode : Lossy
Stream size : 279 MiB (8%)
Title : Cyrillica
Language : Russian
Service kind : Complete Main
Default : Yes
Forced : No
Audio #2
ID : 3
Format : E-AC-3
Format/Info : Enhanced Audio Coding 3
Codec ID : A_EAC3
Duration : 1 h 0 min
Bit rate mode : Constant
Bit rate : 640 kb/s
Channel(s) : 6 channels
Channel positions : Front: L C R, Side: L R, LFE
Sampling rate : 48.0 kHz
Frame rate : 187.500 FPS (256 SPF)
Compression mode : Lossy
Delay relative to video : 20 ms
Stream size : 279 MiB (8%)
Language : English
Service kind : Complete Main
Default : No
Forced : No
Text #1
ID : 4
Format : UTF-8
Codec ID : S_TEXT/UTF8
Codec ID/Info : UTF-8 Plain Text
Duration : 34 min 31 s
Bit rate : 6 b/s
Count of elements : 29
Stream size : 1.61 KiB (0%)
Title : Forced
Language : Russian
Default : Yes
Forced : Yes
Text #2
ID : 5
Format : UTF-8
Codec ID : S_TEXT/UTF8
Codec ID/Info : UTF-8 Plain Text
Duration : 59 min 32 s
Bit rate : 69 b/s
Count of elements : 683
Stream size : 30.5 KiB (0%)
Title : Full
Language : Russian
Default : No
Forced : No
Text #3
ID : 6
Format : UTF-8
Codec ID : S_TEXT/UTF8
Codec ID/Info : UTF-8 Plain Text
Duration : 1 h 0 min
Bit rate : 55 b/s
Count of elements : 997
Stream size : 24.9 KiB (0%)
Title : SDH
Language : English
Default : No
Forced : No

Release was prepared by RG Serials

If your ratio falls below 0.3, you will not be able to download Torrents! More about the rating.

[toptorrent.pw].t5753.torrent
Torrent: Registered [ 2019-06-10 10:19 ] · 1836927EBA01A8387A2D0FE8A96ABFF508DB5E93

Download .torrent

Download

60 KB

Status: checked
Completed: 1 times
Size: 23.31 GB
Rate: 
(Vote: 1)
Has thanked: 1  Thanks   (List)
terms.php


Last edited by .:Mercury:. on 2019-06-10 10:19; edited 10 times in total

.:Mercury:. ®

Gender: Male

Longevity: 1 year 4 months

Posts: 3330

Карма: 31947 [+]

Наличие запрета:

[Profile] [PM]

Post 21-Apr-2019 19:19 (after 13 days)

[Quote]

+3-я серия

.:Mercury:. ®

Gender: Male

Longevity: 1 year 4 months

Posts: 3330

Карма: 31947 [+]

Наличие запрета:

[Profile] [PM]

Post 27-Apr-2019 23:14 (after 6 days)

[Quote]

+4-я серия

.:Mercury:. ®

Gender: Male

Longevity: 1 year 4 months

Posts: 3330

Карма: 31947 [+]

Наличие запрета:

[Profile] [PM]

Post 06-May-2019 07:14 (after 8 days)

[Quote]

+5-я серия

.:Mercury:. ®

Gender: Male

Longevity: 1 year 4 months

Posts: 3330

Карма: 31947 [+]

Наличие запрета:

[Profile] [PM]

Post 12-May-2019 18:45 (after 6 days)

[Quote]

+6-я серия

.:Mercury:. ®

Gender: Male

Longevity: 1 year 4 months

Posts: 3330

Карма: 31947 [+]

Наличие запрета:

[Profile] [PM]

Post 20-May-2019 00:01 (after 7 days)

[Quote]

+7-я серия

.:Mercury:. ®

Gender: Male

Longevity: 1 year 4 months

Posts: 3330

Карма: 31947 [+]

Наличие запрета:

[Profile] [PM]

Post 28-May-2019 17:15 (after 8 days)

[Quote]

+8-я серия

.:Mercury:. ®

Gender: Male

Longevity: 1 year 4 months

Posts: 3330

Карма: 31947 [+]

Наличие запрета:

[Profile] [PM]

Post 03-Jun-2019 10:35 (after 5 days)

[Quote]

+9-я серия

.:Mercury:. ®

Gender: Male

Longevity: 1 year 4 months

Posts: 3330

Карма: 31947 [+]

Наличие запрета:

[Profile] [PM]

Post 10-Jun-2019 10:20 (after 6 days)

[Quote]

+Заключительная серия
Display posts:    
Reply to topic

Current time is: 20-Jun 22:24

All times are UTC + 5



You cannot post new topics in this forum
You cannot reply to topics in this forum
You cannot edit your posts in this forum
You cannot delete your posts in this forum
You cannot vote in polls in this forum
You cannot attach files in this forum
You can download files in this forum